  0
SECTION
  2
HEADER
  9
$ACADVER
  1
AC1015
  9
$ACADMAINTVER
 70
    20
  9
$DWGCODEPAGE
  3
ANSI_1250
  9
$INSBASE
 10
0.0
 20
0.0
 30
0.0
  9
$EXTMIN
 10
28603.27136869788
 20
-31.43048861302967
 30
0.0
  9
$EXTMAX
 10
40334.31795867581
 20
13937.29335995863
 30
0.0
  9
$LIMMIN
 10
0.0
 20
0.0
  9
$LIMMAX
 10
29700.0
 20
21000.0
  9
$ORTHOMODE
 70
     0
  9
$REGENMODE
 70
     1
  9
$FILLMODE
 70
     1
  9
$QTEXTMODE
 70
     0
  9
$MIRRTEXT
 70
     0
  9
$LTSCALE
 40
100.0
  9
$ATTMODE
 70
     1
  9
$TEXTSIZE
 40
0.2
  9
$TRACEWID
 40
0.05
  9
$TEXTSTYLE
  7
Standard
  9
$CLAYER
  8
0
  9
$CELTYPE
  6
ByLayer
  9
$CECOLOR
 62
   256
  9
$CELTSCALE
 40
1.0
  9
$DISPSILH
 70
     0
  9
$DIMSCALE
 40
1.0
  9
$DIMASZ
 40
1.799999999999999
  9
$DIMEXO
 40
0.0625
  9
$DIMDLI
 40
0.38
  9
$DIMRND
 40
0.0
  9
$DIMDLE
 40
0.0
  9
$DIMEXE
 40
0.18
  9
$DIMTP
 40
0.0
  9
$DIMTM
 40
0.0
  9
$DIMTXT
 40
0.25
  9
$DIMCEN
 40
0.09
  9
$DIMTSZ
 40
0.0
  9
$DIMTOL
 70
     0
  9
$DIMLIM
 70
     0
  9
$DIMTIH
 70
     1
  9
$DIMTOH
 70
     1
  9
$DIMSE1
 70
     0
  9
$DIMSE2
 70
     0
  9
$DIMTAD
 70
     0
  9
$DIMZIN
 70
     0
  9
$DIMBLK
  1

  9
$DIMASO
 70
     1
  9
$DIMSHO
 70
     1
  9
$DIMPOST
  1

  9
$DIMAPOST
  1

  9
$DIMALT
 70
     0
  9
$DIMALTD
 70
     2
  9
$DIMALTF
 40
25.4
  9
$DIMLFAC
 40
1.0
  9
$DIMTOFL
 70
     0
  9
$DIMTVP
 40
0.0
  9
$DIMTIX
 70
     0
  9
$DIMSOXD
 70
     0
  9
$DIMSAH
 70
     0
  9
$DIMBLK1
  1

  9
$DIMBLK2
  1

  9
$DIMSTYLE
  2
Standard
  9
$DIMCLRD
 70
     0
  9
$DIMCLRE
 70
     0
  9
$DIMCLRT
 70
     0
  9
$DIMTFAC
 40
1.0
  9
$DIMGAP
 40
0.09
  9
$DIMJUST
 70
     0
  9
$DIMSD1
 70
     0
  9
$DIMSD2
 70
     0
  9
$DIMTOLJ
 70
     1
  9
$DIMTZIN
 70
     0
  9
$DIMALTZ
 70
     0
  9
$DIMALTTZ
 70
     0
  9
$DIMUPT
 70
     0
  9
$DIMDEC
 70
     4
  9
$DIMTDEC
 70
     4
  9
$DIMALTU
 70
     2
  9
$DIMALTTD
 70
     2
  9
$DIMTXSTY
  7
Standard
  9
$DIMAUNIT
 70
     0
  9
$DIMADEC
 70
     0
  9
$DIMALTRND
 40
0.0
  9
$DIMAZIN
 70
     0
  9
$DIMDSEP
 70
    46
  9
$DIMATFIT
 70
     3
  9
$DIMFRAC
 70
     0
  9
$DIMLDRBLK
  1

  9
$DIMLUNIT
 70
     2
  9
$DIMLWD
 70
    -2
  9
$DIMLWE
 70
    -2
  9
$DIMTMOVE
 70
     0
  9
$LUNITS
 70
     2
  9
$LUPREC
 70
     4
  9
$SKETCHINC
 40
0.1
  9
$FILLETRAD
 40
0.0
  9
$AUNITS
 70
     0
  9
$AUPREC
 70
     0
  9
$MENU
  1
.
  9
$ELEVATION
 40
0.0
  9
$PELEVATION
 40
0.0
  9
$THICKNESS
 40
0.0
  9
$LIMCHECK
 70
     0
  9
$CHAMFERA
 40
0.0
  9
$CHAMFERB
 40
0.0
  9
$CHAMFERC
 40
0.0
  9
$CHAMFERD
 40
0.0
  9
$SKPOLY
 70
     0
  9
$TDCREATE
 40
2458569.340412790
  9
$TDUCREATE
 40
2458569.257079456
  9
$TDUPDATE
 40
2458621.549319398
  9
$TDUUPDATE
 40
2458621.465986065
  9
$TDINDWG
 40
0.0009223495
  9
$TDUSRTIMER
 40
0.0009223495
  9
$USRTIMER
 70
     1
  9
$ANGBASE
 50
0.0
  9
$ANGDIR
 70
     0
  9
$PDMODE
 70
     0
  9
$PDSIZE
 40
0.0
  9
$PLINEWID
 40
0.0
  9
$SPLFRAME
 70
     0
  9
$SPLINETYPE
 70
     6
  9
$SPLINESEGS
 70
     8
  9
$HANDSEED
  5
EFB
  9
$SURFTAB1
 70
     6
  9
$SURFTAB2
 70
     6
  9
$SURFTYPE
 70
     6
  9
$SURFU
 70
     6
  9
$SURFV
 70
     6
  9
$UCSBASE
  2

  9
$UCSNAME
  2

  9
$UCSORG
 10
0.0
 20
0.0
 30
0.0
  9
$UCSXDIR
 10
1.0
 20
0.0
 30
0.0
  9
$UCSYDIR
 10
0.0
 20
1.0
 30
0.0
  9
$UCSORTHOREF
  2

  9
$UCSORTHOVIEW
 70
     0
  9
$UCSORGTOP
 10
0.0
 20
0.0
 30
0.0
  9
$UCSORGBOTTOM
 10
0.0
 20
0.0
 30
0.0
  9
$UCSORGLEFT
 10
0.0
 20
0.0
 30
0.0
  9
$UCSORGRIGHT
 10
0.0
 20
0.0
 30
0.0
  9
$UCSORGFRONT
 10
0.0
 20
0.0
 30
0.0
  9
$UCSORGBACK
 10
0.0
 20
0.0
 30
0.0
  9
$PUCSBASE
  2

  9
$PUCSNAME
  2

  9
$PUCSORG
 10
0.0
 20
0.0
 30
0.0
  9
$PUCSXDIR
 10
1.0
 20
0.0
 30
0.0
  9
$PUCSYDIR
 10
0.0
 20
1.0
 30
0.0
  9
$PUCSORTHOREF
  2

  9
$PUCSORTHOVIEW
 70
     0
  9
$PUCSORGTOP
 10
0.0
 20
0.0
 30
0.0
  9
$PUCSORGBOTTOM
 10
0.0
 20
0.0
 30
0.0
  9
$PUCSORGLEFT
 10
0.0
 20
0.0
 30
0.0
  9
$PUCSORGRIGHT
 10
0.0
 20
0.0
 30
0.0
  9
$PUCSORGFRONT
 10
0.0
 20
0.0
 30
0.0
  9
$PUCSORGBACK
 10
0.0
 20
0.0
 30
0.0
  9
$USERI1
 70
     0
  9
$USERI2
 70
     0
  9
$USERI3
 70
     0
  9
$USERI4
 70
     0
  9
$USERI5
 70
     0
  9
$USERR1
 40
0.0
  9
$USERR2
 40
0.0
  9
$USERR3
 40
0.0
  9
$USERR4
 40
0.0
  9
$USERR5
 40
0.0
  9
$WORLDVIEW
 70
     1
  9
$SHADEDGE
 70
     3
  9
$SHADEDIF
 70
    70
  9
$TILEMODE
 70
     1
  9
$MAXACTVP
 70
    64
  9
$PINSBASE
 10
0.0
 20
0.0
 30
0.0
  9
$PLIMCHECK
 70
     0
  9
$PEXTMIN
 10
0.0
 20
0.0
 30
0.0
  9
$PEXTMAX
 10
29700.0
 20
21000.0
 30
0.0
  9
$PLIMMIN
 10
0.0
 20
0.0
  9
$PLIMMAX
 10
29700.0
 20
21000.0
  9
$UNITMODE
 70
     0
  9
$VISRETAIN
 70
     1
  9
$PLINEGEN
 70
     0
  9
$PSLTSCALE
 70
     1
  9
$TREEDEPTH
 70
  3020
  9
$CMLSTYLE
  2
Standard
  9
$CMLJUST
 70
     0
  9
$CMLSCALE
 40
1.0
  9
$PROXYGRAPHICS
 70
     1
  9
$MEASUREMENT
 70
     1
  9
$CELWEIGHT
370
    -1
  9
$ENDCAPS
280
     0
  9
$JOINSTYLE
280
     0
  9
$LWDISPLAY
290
     0
  9
$INSUNITS
 70
     4
  9
$HYPERLINKBASE
  1
www.muller.com.pl
  9
$STYLESHEET
  1

  9
$XEDIT
290
     1
  9
$CEPSNTYPE
380
     0
  9
$PSTYLEMODE
290
     1
  9
$FINGERPRINTGUID
  2
{523E64A9-5227-4E51-8C17-ACC4AFEF558B}
  9
$VERSIONGUID
  2
{64F890B8-FDF2-497F-AABD-ED41F10B02EF}
  9
$EXTNAMES
290
     1
  9
$PSVPSCALE
 40
0.0
  9
$OLESTARTUP
290
     0
  0
ENDSEC
  0
SECTION
  2
CLASSES
  0
CLASS
  1
ACDBDICTIONARYWDFLT
  2
AcDbDictionaryWithDefault
  3
ObjectDBX Classes
 90
        0
280
     0
281
     0
  0
CLASS
  1
MATERIAL
  2
AcDbMaterial
  3
ObjectDBX Classes
 90
     1153
280
     0
281
     0
  0
CLASS
  1
VISUALSTYLE
  2
AcDbVisualStyle
  3
ObjectDBX Classes
 90
     4095
280
     0
281
     0
  0
CLASS
  1
SCALE
  2
AcDbScale
  3
ObjectDBX Classes
 90
     1153
280
     0
281
     0
  0
CLASS
  1
TABLESTYLE
  2
AcDbTableStyle
  3
ObjectDBX Classes
 90
     4095
280
     0
281
     0
  0
CLASS
  1
MLEADERSTYLE
  2
AcDbMLeaderStyle
  3
ACDB_MLEADERSTYLE_CLASS
 90
     4095
280
     0
281
     0
  0
CLASS
  1
CELLSTYLEMAP
  2
AcDbCellStyleMap
  3
ObjectDBX Classes
 90
     1152
280
     0
281
     0
  0
CLASS
  1
DICTIONARYVAR
  2
AcDbDictionaryVar
  3
ObjectDBX Classes
 90
        0
280
     0
281
     0
  0
CLASS
  1
ACDBPLACEHOLDER
  2
AcDbPlaceHolder
  3
ObjectDBX Classes
 90
        0
280
     0
281
     0
  0
CLASS
  1
LAYOUT
  2
AcDbLayout
  3
ObjectDBX Classes
 90
        0
280
     0
281
     0
  0
CLASS
  1
EXACXREFPANELOBJECT
  2
ExAcXREFPanelObject
  3
EXAC_ESW
 90
     1025
280
     0
281
     0
  0
CLASS
  1
NPOCOLLECTION
  2
AcDbImpNonPersistentObjectsCollection
  3
ObjectDBX Classes
 90
     1153
280
     0
281
     0
  0
CLASS
  1
SOLID_BACKGROUND
  2
AcDbSolidBackground
  3
SCENEOE
 90
     4095
280
     0
281
     0
  0
ENDSEC
  0
SECTION
  2
TABLES
  0
TABLE
  2
VPORT
  5
8
102
{ACAD_XDICTIONARY
360
D52
102
}
330
0
100
AcDbSymbolTable
 70
     1
  0
VPORT
  5
57
330
8
100
AcDbSymbolTableRecord
100
AcDbViewportTableRecord
  2
*Active
 70
     0
 10
0.0
 20
0.0
 11
1.0
 21
1.0
 12
129.8613742619418
 22
92.57515996419897
 13
0.0
 23
0.0
 14
1.0
 24
1.0
 15
0.0
 25
0.0
 16
-0.0000000000145519
 26
0.0
 36
57765.06695669847
 17
34468.79466247559
 27
6958.318904660121
 37
0.0
 40
16034.40424805687
 41
2.430203045685279
 42
50.0
 43
0.0
 44
0.0
 50
0.0
 51
0.0
 71
     0
 72
   100
 73
     1
 74
     1
 75
     0
 76
     0
 77
     0
 78
     0
281
     0
 65
     1
110
0.0
120
0.0
130
0.0
111
1.0
121
0.0
131
0.0
112
0.0
122
1.0
132
0.0
 79
     0
146
0.0
  0
ENDTAB
  0
TABLE
  2
LTYPE
  5
5
330
0
100
AcDbSymbolTable
 70
    59
  0
LTYPE
  5
5B
330
5
100
AcDbSymbolTableRecord
100
AcDbLinetypeTableRecord
  2
ByBlock
 70
     0
  3

 72
    65
 73
     0
 40
0.0
  0
LTYPE
  5
5C
330
5
100
AcDbSymbolTableRecord
100
AcDbLinetypeTableRecord
  2
ByLayer
 70
     0
  3

 72
    65
 73
     0
 40
0.0
  0
LTYPE
  5
5D
330
5
100
AcDbSymbolTableRecord
100
AcDbLinetypeTableRecord
  2
Continuous
 70
     0
  3
Solid line
 72
    65
 73
     0
 40
0.0
  0
ENDTAB
  0
TABLE
  2
LAYER
  5
2
330
0
100
AcDbSymbolTable
 70
     8
  0
LAYER
  5
54
330
2
100
AcDbSymbolTableRecord
100
AcDbLayerTableRecord
  2
0
 70
     0
 62
     7
  6
Continuous
370
    -3
390
F
  0
LAYER
  5
BA
330
2
100
AcDbSymbolTableRecord
100
AcDbLayerTableRecord
  2
Dimension (ISO)
 70
     0
 62
   161
  6
Continuous
370
    18
390
F
  0
LAYER
  5
C5
330
2
100
AcDbSymbolTableRecord
100
AcDbLayerTableRecord
  2
Title (ISO)
 70
     0
 62
     7
  6
Continuous
370
    30
390
F
  0
LAYER
  5
C8
330
2
100
AcDbSymbolTableRecord
100
AcDbLayerTableRecord
  2
Visible (ISO)
 70
     0
 62
     7
  6
Continuous
370
    35
390
F
  0
LAYER
  5
4D7
330
2
100
AcDbSymbolTableRecord
100
AcDbLayerTableRecord
  2
Defpoints
 70
     0
 62
     7
  6
Continuous
290
     0
370
    -3
390
F
  0
ENDTAB
  0
TABLE
  2
STYLE
  5
3
330
0
100
AcDbSymbolTable
 70
     7
  0
STYLE
  5
55
330
3
100
AcDbSymbolTableRecord
100
AcDbTextStyleTableRecord
  2
Standard
 70
     0
 40
0.0
 41
1.0
 50
0.0
 71
     0
 42
0.2
  3
tahoma.ttf
  4

1001
ACAD
1000
Tahoma
1071
      256
  0
STYLE
  5
CD
330
3
100
AcDbSymbolTableRecord
100
AcDbTextStyleTableRecord
  2
Label Text (ISO)
 70
     0
 40
0.0
 41
1.0
 50
0.0
 71
     0
 42
0.2
  3
tahoma.ttf
  4

1001
ACAD
1000
Tahoma
1071
      256
  0
STYLE
  5
CE
330
3
100
AcDbSymbolTableRecord
100
AcDbTextStyleTableRecord
  2
Note Text (ISO)
 70
     0
 40
0.0
 41
1.0
 50
0.0
 71
     0
 42
0.2
  3
tahoma.ttf
  4

1001
ACAD
1000
Tahoma
1071
      256
  0
ENDTAB
  0
TABLE
  2
VIEW
  5
6
330
0
100
AcDbSymbolTable
 70
     0
  0
ENDTAB
  0
TABLE
  2
UCS
  5
7
330
0
100
AcDbSymbolTable
 70
     0
  0
ENDTAB
  0
TABLE
  2
APPID
  5
9
330
0
100
AcDbSymbolTable
 70
     4
  0
APPID
  5
56
330
9
100
AcDbSymbolTableRecord
100
AcDbRegAppTableRecord
  2
ACAD
 70
     0
  0
APPID
  5
5E
330
9
100
AcDbSymbolTableRecord
100
AcDbRegAppTableRecord
  2
AcadAnnotative
 70
     0
  0
APPID
  5
D34
330
9
100
AcDbSymbolTableRecord
100
AcDbRegAppTableRecord
  2
AcadAnnoPO
 70
     0
  0
APPID
  5
D88
330
9
100
AcDbSymbolTableRecord
100
AcDbRegAppTableRecord
  2
ACAD_MLEADERVER
 70
     0
  0
ENDTAB
  0
TABLE
  2
DIMSTYLE
  5
A
330
0
100
AcDbSymbolTable
 70
    12
100
AcDbDimStyleTable
 71
     2
340
D5
340
58
  0
DIMSTYLE
105
58
330
A
100
AcDbSymbolTableRecord
100
AcDbDimStyleTableRecord
  2
Standard
 70
     0
340
55
  0
DIMSTYLE
105
D5
102
{ACAD_REACTORS
330
4D6
330
5B9
330
6A1
330
783
330
86B
330
950
330
A62
330
B47
330
C47
102
}
330
A
100
AcDbSymbolTableRecord
100
AcDbDimStyleTableRecord
  2
Default (ISO)
 70
     0
 40
100.0
 41
2.5
 42
0.5
 43
5.999999999999999
 44
1.0
 45
0.00000001
 46
10.0
 73
     0
 77
     1
 78
     8
 79
     2
140
3.5
143
0.03937
146
0.7142857313156128
147
0.762
171
     3
172
     1
176
   256
177
   256
178
   256
271
     2
272
     2
274
     3
278
    44
340
CD
371
    -1
372
    -1
  0
ENDTAB
  0
TABLE
  2
BLOCK_RECORD
  5
1
330
0
100
AcDbSymbolTable
 70
    18
  0
BLOCK_RECORD
  5
6C
330
1
100
AcDbSymbolTableRecord
100
AcDbBlockTableRecord
  2
*Model_Space
340
6F
  0
BLOCK_RECORD
  5
68
330
1
100
AcDbSymbolTableRecord
100
AcDbBlockTableRecord
  2
*Paper_Space
340
6B
  0
BLOCK_RECORD
  5
70
330
1
100
AcDbSymbolTableRecord
100
AcDbBlockTableRecord
  2
*Paper_Space0
340
73
  0
BLOCK_RECORD
  5
4D8
330
1
100
AcDbSymbolTableRecord
100
AcDbBlockTableRecord
  2
*D7
340
0
  0
BLOCK_RECORD
  5
5BA
330
1
100
AcDbSymbolTableRecord
100
AcDbBlockTableRecord
  2
*D8
340
0
  0
BLOCK_RECORD
  5
6A2
330
1
100
AcDbSymbolTableRecord
100
AcDbBlockTableRecord
  2
*D9
340
0
  0
BLOCK_RECORD
  5
784
330
1
100
AcDbSymbolTableRecord
100
AcDbBlockTableRecord
  2
*D10
340
0
  0
BLOCK_RECORD
  5
86C
330
1
100
AcDbSymbolTableRecord
100
AcDbBlockTableRecord
  2
*D11
340
0
  0
BLOCK_RECORD
  5
951
330
1
100
AcDbSymbolTableRecord
100
AcDbBlockTableRecord
  2
*D12
340
0
  0
BLOCK_RECORD
  5
A63
330
1
100
AcDbSymbolTableRecord
100
AcDbBlockTableRecord
  2
*D13
340
0
  0
BLOCK_RECORD
  5
B48
330
1
100
AcDbSymbolTableRecord
100
AcDbBlockTableRecord
  2
*D14
340
0
  0
BLOCK_RECORD
  5
C48
330
1
100
AcDbSymbolTableRecord
100
AcDbBlockTableRecord
  2
*D15
340
0
  0
BLOCK_RECORD
  5
D2C
330
1
100
AcDbSymbolTableRecord
100
AcDbBlockTableRecord
  2
Tabelki rysunkowe Rzut
340
0
102
{BLKREFS
331
D37
102
}
  0
BLOCK_RECORD
  5
DAA
330
1
100
AcDbSymbolTableRecord
100
AcDbBlockTableRecord
  2
88501_Street-workout-parkour-1
340
0
310
2800000020000000200000000100080000000000000400000000000000000000000000000000000000000000000080000080000000808000800000008000800080800000C0C0C000C0DCC000F0CAA6000020400000206000002080000020A0000020C0000020E00000400000004020000040400000406000004080000040A0
310
000040C0000040E00000600000006020000060400000606000006080000060A0000060C0000060E00000800000008020000080400000806000008080000080A0000080C0000080E00000A0000000A0200000A0400000A0600000A0800000A0A00000A0C00000A0E00000C0000000C0200000C0400000C0600000C0800000C0
310
A00000C0C00000C0E00000E0000000E0200000E0400000E0600000E0800000E0A00000E0C00000E0E00040000000400020004000400040006000400080004000A0004000C0004000E00040200000402020004020400040206000402080004020A0004020C0004020E000404000004040200040404000404060004040800040
310
40A0004040C0004040E00040600000406020004060400040606000406080004060A0004060C0004060E00040800000408020004080400040806000408080004080A0004080C0004080E00040A0000040A0200040A0400040A0600040A0800040A0A00040A0C00040A0E00040C0000040C0200040C0400040C0600040C08000
310
40C0A00040C0C00040C0E00040E0000040E0200040E0400040E0600040E0800040E0A00040E0C00040E0E00080000000800020008000400080006000800080008000A0008000C0008000E00080200000802020008020400080206000802080008020A0008020C0008020E00080400000804020008040400080406000804080
310
008040A0008040C0008040E00080600000806020008060400080606000806080008060A0008060C0008060E00080800000808020008080400080806000808080008080A0008080C0008080E00080A0000080A0200080A0400080A0600080A0800080A0A00080A0C00080A0E00080C0000080C0200080C0400080C0600080C0
310
800080C0A00080C0C00080C0E00080E0000080E0200080E0400080E0600080E0800080E0A00080E0C00080E0E000C0000000C0002000C0004000C0006000C0008000C000A000C000C000C000E000C0200000C0202000C0204000C0206000C0208000C020A000C020C000C020E000C0400000C0402000C0404000C0406000C0
310
408000C040A000C040C000C040E000C0600000C0602000C0604000C0606000C0608000C060A000C060C000C060E000C0800000C0802000C0804000C0806000C0808000C080A000C080C000C080E000C0A00000C0A02000C0A04000C0A06000C0A08000C0A0A000C0A0C000C0A0E000C0C00000C0C02000C0C04000C0C06000
310
C0C08000C0C0A000F0FBFF00A4A0A000808080000000FF0000FF000000FFFF00FF000000FF00FF00FFFF0000FFFFFF0049494949494949494949494949494949494949494949494949494949494949494949494949494949494949494949494949494949494949494949494949494949494949494949494949494949494949
310
49494949494949494949494949494949494949494949494949494949494949494949494949494949494949494949494949494949494949494949494949494949494949494949494949494949494949494949494949494949494949494949494949494949494949494949494949494949494949494949494949494949494949
310
49494949494949494949494949494949494949494949494949494949494949494949494949494949FFFFFFFFFF4949494949494949494949494949494949494949494949494949FF4949494949FF494949494949494949494949494949494949494949494949FF49494949494949FFFF4949494949FFFFFFFFFFFFFFFFFFFF
310
FFFFFFFFFFFFFFFF4949494949494949FF49494949FFFF4949494949494949494949494949494949FF4949FF4949494949FF494949FF494949494949494949494949494949494949FFFFFF49FFFF494949FF4949FFFF4949494949494949494949494949494949FFFF49FF4949494949FFFF4949FF49494949FFFFFFFFFFFF
310
FFFFFFFFFF49494949FF49494949494949FF494949FF49494949FFFFFFFFFFFF49494949FF494949494949494949494949FF494949FF49494949FFFFFFFFFFFF49494949FF494949494949494949494949FF494949FF49494949FFFFFFFFFFFFFFFFFFFFFFFF494949FFFFFFFFFF494949FF494949FF49494949FF49494949
310
4949494949FFFF494949FFFFFFFFFF494949FF494949FF49494949FF494949494949494949FFFF494949FF4949FFFF494949FF494949FF49494949FF494949494949494949FFFF494949FF4949FFFF494949FF494949FFFF494949FF49494949494949494949494949494949494949494949FF49494949FF49494949494949
310
494949494949494949494949494949494949FFFF49494949FFFF4949494949494949494949494949494949494949494949FFFF49494949494949FFFFFFFFFFFFFFFFFFFFFFFFFFFFFFFFFFFFFFFFFFFFFFFF494949494949494949494949494949494949494949494949494949494949494949494949494949494949494949
310
49494949494949494949494949494949494949494949494949494949494949494949494949494949494949494949494949494949494949494949494949494949494949494949494949494949494949494949494949494949494949494949494949494949494949494949494949494949494949494949494949494949494949
310
4949494949494949494949494949494949494949494949494949494949494949494949494949494949494949494949494949494949494949
102
{BLKREFS
331
EB0
102
}
1001
ACAD
1000
DesignCenter Data
1002
{
1070
     1
1070
     4
1002
}
  0
ENDTAB
  0
ENDSEC
  0
SECTION
  2
BLOCKS
  0
BLOCK
  5
6D
330
6C
100
AcDbEntity
  8
0
100
AcDbBlockBegin
  2
*Model_Space
 70
     0
 10
0.0
 20
0.0
 30
0.0
  3
*Model_Space
  1

  0
ENDBLK
  5
6E
330
6C
100
AcDbEntity
  8
0
100
AcDbBlockEnd
  0
BLOCK
  5
69
330
68
100
AcDbEntity
 67
     1
  8
0
100
AcDbBlockBegin
  2
*Paper_Space
 70
     0
 10
0.0
 20
0.0
 30
0.0
  3
*Paper_Space
  1

  0
ENDBLK
  5
6A
330
68
100
AcDbEntity
 67
     1
  8
0
100
AcDbBlockEnd
  0
BLOCK
  5
71
330
70
100
AcDbEntity
 67
     1
  8
0
100
AcDbBlockBegin
  2
*Paper_Space0
 70
     0
 10
0.0
 20
0.0
 30
0.0
  3
*Paper_Space0
  1

  0
ENDBLK
  5
72
330
70
100
AcDbEntity
 67
     1
  8
0
100
AcDbBlockEnd
  0
BLOCK
  5
4D9
330
4D8
100
AcDbEntity
  8
0
100
AcDbBlockBegin
  2
*D7
 70
     1
 10
0.0
 20
0.0
 30
0.0
  3
*D7
  1

  0
LINE
  5
5B0
330
4D8
100
AcDbEntity
  8
Dimension (ISO)
100
AcDbLine
 10
28603.27136869788
 20
5350.149792161921
 30
0.0
 11
28603.27136869788
 21
1760.757161756024
 31
0.0
  0
LINE
  5
5B1
330
4D8
100
AcDbEntity
  8
Dimension (ISO)
100
AcDbLine
 10
38884.36488413942
 20
4560.731041823888
 30
0.0
 11
38884.36488413942
 21
1760.757161756024
 31
0.0
  0
LINE
  5
5B2
330
4D8
100
AcDbEntity
  8
Dimension (ISO)
100
AcDbLine
 10
28853.27136869788
 20
1860.757161756024
 30
0.0
 11
38634.36488413942
 21
1860.757161756024
 31
0.0
  0
SOLID
  5
5B3
330
4D8
100
AcDbEntity
  8
Dimension (ISO)
100
AcDbTrace
 10
28853.27136869788
 20
1902.423828422691
 30
0.0
 11
28853.27136869788
 21
1819.090495089357
 31
0.0
 12
28603.27136869788
 22
1860.757161756024
 32
0.0
 13
28603.27136869788
 23
1860.757161756024
 33
0.0
  0
SOLID
  5
5B4
330
4D8
100
AcDbEntity
  8
Dimension (ISO)
100
AcDbTrace
 10
38634.36488413942
 20
1902.423828422691
 30
0.0
 11
38634.36488413942
 21
1819.090495089357
 31
0.0
 12
38884.36488413942
 22
1860.757161756024
 32
0.0
 13
38884.36488413942
 23
1860.757161756024
 33
0.0
  0
MTEXT
  5
5B5
330
4D8
100
AcDbEntity
  8
Dimension (ISO)
100
AcDbMText
 10
33743.81812641864
 20
2302.94104119125
 30
0.0
 40
350.0
 41
0.0
 71
     2
 72
     1
  1
\A1;10281
  7
Label Text (ISO)
 73
     1
 44
1.0
1001
ACAD
1000
MTEXTBEGIN
1070
    73
1070
     1
1070
    44
1040
1.0
1070
    74
1070
     0
1000
MTEXTEND
  0
POINT
  5
5B6
330
4D8
100
AcDbEntity
  8
Defpoints
 62
     0
100
AcDbPoint
 10
28603.27136869788
 20
5400.149792161922
 30
0.0
  0
POINT
  5
5B7
330
4D8
100
AcDbEntity
  8
Defpoints
 62
     0
100
AcDbPoint
 10
38884.36488413942
 20
4610.731041823888
 30
0.0
  0
POINT
  5
5B8
330
4D8
100
AcDbEntity
  8
Defpoints
 62
     0
100
AcDbPoint
 10
38884.36488413942
 20
1860.757161756024
 30
0.0
  0
ENDBLK
  5
4DA
330
4D8
100
AcDbEntity
  8
0
100
AcDbBlockEnd
  0
BLOCK
  5
5BB
330
5BA
100
AcDbEntity
  8
0
100
AcDbBlockBegin
  2
*D8
 70
     1
 10
0.0
 20
0.0
 30
0.0
  3
*D8
  1

  0
LINE
  5
698
330
5BA
100
AcDbEntity
  8
Dimension (ISO)
100
AcDbLine
 10
36847.22345295428
 20
2772.287800644198
 30
0.0
 11
40334.31795867581
 21
2772.287800644197
 31
0.0
  0
LINE
  5
699
330
5BA
100
AcDbEntity
  8
Dimension (ISO)
100
AcDbLine
 10
37198.27136869781
 20
9175.149792161922
 30
0.0
 11
40334.31795867581
 21
9175.149792161922
 31
0.0
  0
LINE
  5
69A
330
5BA
100
AcDbEntity
  8
Dimension (ISO)
100
AcDbLine
 10
40234.31795867582
 20
3022.287800644197
 30
0.0
 11
40234.31795867582
 21
8925.149792161922
 31
0.0
  0
SOLID
  5
69B
330
5BA
100
AcDbEntity
  8
Dimension (ISO)
100
AcDbTrace
 10
40192.65129200915
 20
3022.287800644197
 30
0.0
 11
40275.98462534248
 21
3022.287800644197
 31
0.0
 12
40234.31795867582
 22
2772.287800644197
 32
0.0
 13
40234.31795867582
 23
2772.287800644197
 33
0.0
  0
SOLID
  5
69C
330
5BA
100
AcDbEntity
  8
Dimension (ISO)
100
AcDbTrace
 10
40192.65129200915
 20
8925.149792161922
 30
0.0
 11
40275.98462534248
 21
8925.149792161922
 31
0.0
 12
40234.31795867582
 22
9175.149792161922
 32
0.0
 13
40234.31795867582
 23
9175.149792161922
 33
0.0
  0
MTEXT
  5
69D
330
5BA
100
AcDbEntity
  8
Dimension (ISO)
100
AcDbMText
 10
39793.54442174324
 20
5973.718796403061
 30
0.0
 40
350.0
 41
0.0
 71
     2
 72
     1
  1
\A1;6403
  7
Label Text (ISO)
 11
0.0000000000000001
 21
1.0
 31
0.0
 73
     1
 44
1.0
1001
ACAD
1000
MTEXTBEGIN
1070
    73
1070
     1
1070
    44
1040
1.0
1070
    74
1070
     0
1000
MTEXTEND
  0
POINT
  5
69E
330
5BA
100
AcDbEntity
  8
Defpoints
 62
     0
100
AcDbPoint
 10
36797.22345295429
 20
2772.287800644198
 30
0.0
  0
POINT
  5
69F
330
5BA
100
AcDbEntity
  8
Defpoints
 62
     0
100
AcDbPoint
 10
37148.27136869781
 20
9175.149792161922
 30
0.0
  0
POINT
  5
6A0
330
5BA
100
AcDbEntity
  8
Defpoints
 62
     0
100
AcDbPoint
 10
40234.31795867582
 20
9175.149792161922
 30
0.0
  0
ENDBLK
  5
5BC
330
5BA
100
AcDbEntity
  8
0
100
AcDbBlockEnd
  0
BLOCK
  5
6A3
330
6A2
100
AcDbEntity
  8
0
100
AcDbBlockBegin
  2
*D9
 70
     1
 10
0.0
 20
0.0
 30
0.0
  3
*D9
  1

  0
LINE
  5
77A
330
6A2
100
AcDbEntity
  8
Dimension (ISO)
100
AcDbLine
 10
30173.27136869788
 20
7947.149792161922
 30
0.0
 11
30173.27136869788
 21
8519.28292360699
 31
0.0
  0
LINE
  5
77B
330
6A2
100
AcDbEntity
  8
Dimension (ISO)
100
AcDbLine
 10
37148.27136869781
 20
7720.149792161913
 30
0.0
 11
37148.27136869781
 21
8519.28292360699
 31
0.0
  0
LINE
  5
77C
330
6A2
100
AcDbEntity
  8
Dimension (ISO)
100
AcDbLine
 10
30423.27136869788
 20
8419.28292360699
 30
0.0
 11
36898.27136869781
 21
8419.28292360699
 31
0.0
  0
SOLID
  5
77D
330
6A2
100
AcDbEntity
  8
Dimension (ISO)
100
AcDbTrace
 10
30423.27136869788
 20
8460.949590273656
 30
0.0
 11
30423.27136869788
 21
8377.616256940324
 31
0.0
 12
30173.27136869788
 22
8419.28292360699
 32
0.0
 13
30173.27136869788
 23
8419.28292360699
 33
0.0
  0
SOLID
  5
77E
330
6A2
100
AcDbEntity
  8
Dimension (ISO)
100
AcDbTrace
 10
36898.27136869781
 20
8460.949590273656
 30
0.0
 11
36898.27136869781
 21
8377.616256940324
 31
0.0
 12
37148.27136869781
 22
8419.28292360699
 32
0.0
 13
37148.27136869781
 23
8419.28292360699
 33
0.0
  0
MTEXT
  5
77F
330
6A2
100
AcDbEntity
  8
Dimension (ISO)
100
AcDbMText
 10
33660.77136869785
 20
8859.821403455802
 30
0.0
 40
350.0
 41
0.0
 71
     2
 72
     1
  1
\A1;6975
  7
Label Text (ISO)
 73
     1
 44
1.0
1001
ACAD
1000
MTEXTBEGIN
1070
    73
1070
     1
1070
    44
1040
1.0
1070
    74
1070
     0
1000
MTEXTEND
  0
POINT
  5
780
330
6A2
100
AcDbEntity
  8
Defpoints
 62
     0
100
AcDbPoint
 10
30173.27136869788
 20
7897.149792161922
 30
0.0
  0
POINT
  5
781
330
6A2
100
AcDbEntity
  8
Defpoints
 62
     0
100
AcDbPoint
 10
37148.27136869781
 20
7670.149792161914
 30
0.0
  0
POINT
  5
782
330
6A2
100
AcDbEntity
  8
Defpoints
 62
     0
100
AcDbPoint
 10
37148.27136869781
 20
8419.28292360699
 30
0.0
  0
ENDBLK
  5
6A4
330
6A2
100
AcDbEntity
  8
0
100
AcDbBlockEnd
  0
BLOCK
  5
785
330
784
100
AcDbEntity
  8
0
100
AcDbBlockBegin
  2
*D10
 70
     1
 10
0.0
 20
0.0
 30
0.0
  3
*D10
  1

  0
LINE
  5
862
330
784
100
AcDbEntity
  8
Dimension (ISO)
100
AcDbLine
 10
30126.27136869788
 20
7900.149792161923
 30
0.0
 11
29518.76608053936
 21
7900.149792161923
 31
0.0
  0
LINE
  5
863
330
784
100
AcDbEntity
  8
Dimension (ISO)
100
AcDbLine
 10
30126.27136869782
 20
5400.149792161924
 30
0.0
 11
29518.76608053936
 21
5400.149792161924
 31
0.0
  0
LINE
  5
864
330
784
100
AcDbEntity
  8
Dimension (ISO)
100
AcDbLine
 10
29618.76608053937
 20
7650.149792161923
 30
0.0
 11
29618.76608053937
 21
5650.149792161924
 31
0.0
  0
SOLID
  5
865
330
784
100
AcDbEntity
  8
Dimension (ISO)
100
AcDbTrace
 10
29577.0994138727
 20
7650.149792161923
 30
0.0
 11
29660.43274720604
 21
7650.149792161923
 31
0.0
 12
29618.76608053937
 22
7900.149792161923
 32
0.0
 13
29618.76608053937
 23
7900.149792161923
 33
0.0
  0
SOLID
  5
866
330
784
100
AcDbEntity
  8
Dimension (ISO)
100
AcDbTrace
 10
29577.0994138727
 20
5650.149792161924
 30
0.0
 11
29660.43274720604
 21
5650.149792161924
 31
0.0
 12
29618.76608053937
 22
5400.149792161924
 32
0.0
 13
29618.76608053937
 23
5400.149792161924
 33
0.0
  0
MTEXT
  5
867
330
784
100
AcDbEntity
  8
Dimension (ISO)
100
AcDbMText
 10
29177.99254360678
 20
6650.149792161925
 30
0.0
 40
350.0
 41
0.0
 71
     2
 72
     1
  1
\A1;2500
  7
Label Text (ISO)
 11
0.0000000000000001
 21
1.0
 31
0.0
 73
     1
 44
1.0
1001
ACAD
1000
MTEXTBEGIN
1070
    73
1070
     1
1070
    44
1040
1.0
1070
    74
1070
     0
1000
MTEXTEND
  0
POINT
  5
868
330
784
100
AcDbEntity
  8
Defpoints
 62
     0
100
AcDbPoint
 10
30176.27136869788
 20
7900.149792161923
 30
0.0
  0
POINT
  5
869
330
784
100
AcDbEntity
  8
Defpoints
 62
     0
100
AcDbPoint
 10
30176.27136869782
 20
5400.149792161924
 30
0.0
  0
POINT
  5
86A
330
784
100
AcDbEntity
  8
Defpoints
 62
     0
100
AcDbPoint
 10
29618.76608053937
 20
5400.149792161924
 30
0.0
  0
ENDBLK
  5
786
330
784
100
AcDbEntity
  8
0
100
AcDbBlockEnd
  0
BLOCK
  5
86D
330
86C
100
AcDbEntity
  8
0
100
AcDbBlockBegin
  2
*D11
 70
     1
 10
0.0
 20
0.0
 30
0.0
  3
*D11
  1

  0
LINE
  5
948
330
86C
100
AcDbEntity
  8
Dimension (ISO)
100
AcDbLine
 10
30126.27136869959
 20
13932.29335995863
 30
0.0
 11
29535.18069083622
 21
13932.29335995863
 31
0.0
  0
LINE
  5
949
330
86C
100
AcDbEntity
  8
Dimension (ISO)
100
AcDbLine
 10
29635.18069083622
 20
13682.29335995863
 30
0.0
 11
29635.18069083622
 21
11592.29335995761
 31
0.0
  0
SOLID
  5
94A
330
86C
100
AcDbEntity
  8
Dimension (ISO)
100
AcDbTrace
 10
29593.51402416955
 20
13682.29335995863
 30
0.0
 11
29676.84735750289
 21
13682.29335995863
 31
0.0
 12
29635.18069083622
 22
13932.29335995863
 32
0.0
 13
29635.18069083622
 23
13932.29335995863
 33
0.0
  0
SOLID
  5
94B
330
86C
100
AcDbEntity
  8
Dimension (ISO)
100
AcDbTrace
 10
29593.51402416955
 20
11592.29335995761
 30
0.0
 11
29676.84735750289
 21
11592.29335995761
 31
0.0
 12
29635.18069083622
 22
11342.29335995761
 32
0.0
 13
29635.18069083622
 23
11342.29335995761
 33
0.0
  0
MTEXT
  5
94C
330
86C
100
AcDbEntity
  8
Dimension (ISO)
100
AcDbMText
 10
29194.40715390363
 20
12637.29335995812
 30
0.0
 40
350.0
 41
0.0
 71
     2
 72
     1
  1
\A1;2590
  7
Label Text (ISO)
 11
0.0000000000000001
 21
1.0
 31
0.0
 73
     1
 44
1.0
1001
ACAD
1000
MTEXTBEGIN
1070
    73
1070
     1
1070
    44
1040
1.0
1070
    74
1070
     0
1000
MTEXTEND
  0
POINT
  5
94D
330
86C
100
AcDbEntity
  8
Defpoints
 62
     0
100
AcDbPoint
 10
30176.27136869959
 20
13932.29335995863
 30
0.0
  0
POINT
  5
94E
330
86C
100
AcDbEntity
  8
Defpoints
 62
     0
100
AcDbPoint
 10
29635.18069083622
 20
11342.29335995761
 30
0.0
  0
POINT
  5
94F
330
86C
100
AcDbEntity
  8
Defpoints
 62
     0
100
AcDbPoint
 10
29635.18069083622
 20
11342.29335995761
 30
0.0
  0
ENDBLK
  5
86E
330
86C
100
AcDbEntity
  8
0
100
AcDbBlockEnd
  0
BLOCK
  5
952
330
951
100
AcDbEntity
  8
0
100
AcDbBlockBegin
  2
*D12
 70
     1
 10
0.0
 20
0.0
 30
0.0
  3
*D12
  1

  0
LINE
  5
A57
330
951
100
AcDbEntity
  8
Dimension (ISO)
100
AcDbLine
 10
37515.86488414112
 20
11582.2933599576
 30
0.0
 11
38985.87740426181
 21
11582.2933599576
 31
0.0
  0
LINE
  5
A58
330
951
100
AcDbEntity
  8
Dimension (ISO)
100
AcDbLine
 10
37870.52866868411
 20
11342.29335995728
 30
0.0
 11
38985.87740426181
 21
11342.29335995728
 31
0.0
  0
LINE
  5
A59
330
951
100
AcDbEntity
  8
Dimension (ISO)
100
AcDbLine
 10
38885.87740426181
 20
11092.29335995728
 30
0.0
 11
38885.87740426181
 21
10842.29335995728
 31
0.0
  0
LINE
  5
A5A
330
951
100
AcDbEntity
  8
Dimension (ISO)
100
AcDbLine
 10
38885.87740426181
 20
11832.2933599576
 30
0.0
 11
38885.87740426181
 21
12977.94385884918
 31
0.0
  0
LINE
  5
A5B
330
951
100
AcDbEntity
  8
Dimension (ISO)
100
AcDbLine
 10
38885.87740426181
 20
11342.29335995728
 30
0.0
 11
38885.87740426181
 21
11582.2933599576
 31
0.0
  0
SOLID
  5
A5C
330
951
100
AcDbEntity
  8
Dimension (ISO)
100
AcDbTrace
 10
38844.21073759515
 20
11092.29335995728
 30
0.0
 11
38927.54407092848
 21
11092.29335995728
 31
0.0
 12
38885.87740426181
 22
11342.29335995728
 32
0.0
 13
38885.87740426181
 23
11342.29335995728
 33
0.0
  0
SOLID
  5
A5D
330
951
100
AcDbEntity
  8
Dimension (ISO)
100
AcDbTrace
 10
38844.21073759515
 20
11832.2933599576
 30
0.0
 11
38927.54407092848
 21
11832.2933599576
 31
0.0
 12
38885.87740426181
 22
11582.2933599576
 32
0.0
 13
38885.87740426181
 23
11582.2933599576
 33
0.0
  0
MTEXT
  5
A5E
330
951
100
AcDbEntity
  8
Dimension (ISO)
100
AcDbMText
 10
38445.10386732923
 20
12530.1186094034
 30
0.0
 40
350.0
 41
0.0
 71
     2
 72
     1
  1
\A1;240
  7
Label Text (ISO)
 11
0.0000000000000001
 21
1.0
 31
0.0
 73
     1
 44
1.0
1001
ACAD
1000
MTEXTBEGIN
1070
    73
1070
     1
1070
    44
1040
1.0
1070
    74
1070
     0
1000
MTEXTEND
  0
POINT
  5
A5F
330
951
100
AcDbEntity
  8
Defpoints
 62
     0
100
AcDbPoint
 10
37465.86488414112
 20
11582.2933599576
 30
0.0
  0
POINT
  5
A60
330
951
100
AcDbEntity
  8
Defpoints
 62
     0
100
AcDbPoint
 10
37820.52866868411
 20
11342.29335995728
 30
0.0
  0
POINT
  5
A61
330
951
100
AcDbEntity
  8
Defpoints
 62
     0
100
AcDbPoint
 10
38885.87740426181
 20
11342.29335995728
 30
0.0
  0
ENDBLK
  5
953
330
951
100
AcDbEntity
  8
0
100
AcDbBlockEnd
  0
BLOCK
  5
A64
330
A63
100
AcDbEntity
  8
0
100
AcDbBlockBegin
  2
*D13
 70
     1
 10
0.0
 20
0.0
 30
0.0
  3
*D13
  1

  0
LINE
  5
B3F
330
A63
100
AcDbEntity
  8
Dimension (ISO)
100
AcDbLine
 10
35608.27136869952
 20
12732.29335995821
 30
0.0
 11
35040.73472869346
 21
12732.29335995821
 31
0.0
  0
LINE
  5
B40
330
A63
100
AcDbEntity
  8
Dimension (ISO)
100
AcDbLine
 10
35140.73472869346
 20
12482.29335995821
 30
0.0
 11
35140.73472869346
 21
11592.29335995739
 31
0.0
  0
SOLID
  5
B41
330
A63
100
AcDbEntity
  8
Dimension (ISO)
100
AcDbTrace
 10
35099.0680620268
 20
12482.29335995821
 30
0.0
 11
35182.40139536013
 21
12482.29335995821
 31
0.0
 12
35140.73472869346
 22
12732.29335995821
 32
0.0
 13
35140.73472869346
 23
12732.29335995821
 33
0.0
  0
SOLID
  5
B42
330
A63
100
AcDbEntity
  8
Dimension (ISO)
100
AcDbTrace
 10
35099.0680620268
 20
11592.29335995739
 30
0.0
 11
35182.40139536013
 21
11592.29335995739
 31
0.0
 12
35140.73472869346
 22
11342.29335995739
 32
0.0
 13
35140.73472869346
 23
11342.29335995739
 33
0.0
  0
MTEXT
  5
B43
330
A63
100
AcDbEntity
  8
Dimension (ISO)
100
AcDbMText
 10
34699.96119176088
 20
12037.2933599578
 30
0.0
 40
350.0
 41
0.0
 71
     2
 72
     1
  1
\A1;1390
  7
Label Text (ISO)
 11
0.0000000000000001
 21
1.0
 31
0.0
 73
     1
 44
1.0
1001
ACAD
1000
MTEXTBEGIN
1070
    73
1070
     1
1070
    44
1040
1.0
1070
    74
1070
     0
1000
MTEXTEND
  0
POINT
  5
B44
330
A63
100
AcDbEntity
  8
Defpoints
 62
     0
100
AcDbPoint
 10
35658.27136869952
 20
12732.29335995821
 30
0.0
  0
POINT
  5
B45
330
A63
100
AcDbEntity
  8
Defpoints
 62
     0
100
AcDbPoint
 10
35344.11874143557
 20
11342.29335995739
 30
0.0
  0
POINT
  5
B46
330
A63
100
AcDbEntity
  8
Defpoints
 62
     0
100
AcDbPoint
 10
35140.73472869346
 20
11342.29335995739
 30
0.0
  0
ENDBLK
  5
A65
330
A63
100
AcDbEntity
  8
0
100
AcDbBlockEnd
  0
BLOCK
  5
B49
330
B48
100
AcDbEntity
  8
0
100
AcDbBlockBegin
  2
*D14
 70
     1
 10
0.0
 20
0.0
 30
0.0
  3
*D14
  1

  0
LINE
  5
C3D
330
B48
100
AcDbEntity
  8
Dimension (ISO)
100
AcDbLine
 10
37188.27136869951
 20
12292.29335995821
 30
0.0
 11
37972.06489654427
 21
12292.29335995821
 31
0.0
  0
LINE
  5
C3E
330
B48
100
AcDbEntity
  8
Dimension (ISO)
100
AcDbLine
 10
37870.52866868411
 20
11342.29335995728
 30
0.0
 11
37972.06489654427
 21
11342.29335995728
 31
0.0
  0
LINE
  5
C3F
330
B48
100
AcDbEntity
  8
Dimension (ISO)
100
AcDbLine
 10
37872.06489654427
 20
11592.29335995728
 30
0.0
 11
37872.06489654427
 21
12042.29335995821
 31
0.0
  0
LINE
  5
C40
330
B48
100
AcDbEntity
  8
Dimension (ISO)
100
AcDbLine
 10
37872.06489654427
 20
12292.29335995821
 30
0.0
 11
37872.06489654427
 21
13507.06537201765
 31
0.0
  0
SOLID
  5
C41
330
B48
100
AcDbEntity
  8
Dimension (ISO)
100
AcDbTrace
 10
37830.39822987761
 20
11592.29335995728
 30
0.0
 11
37913.73156321093
 21
11592.29335995728
 31
0.0
 12
37872.06489654427
 22
11342.29335995728
 32
0.0
 13
37872.06489654427
 23
11342.29335995728
 33
0.0
  0
SOLID
  5
C42
330
B48
100
AcDbEntity
  8
Dimension (ISO)
100
AcDbTrace
 10
37830.39822987761
 20
12042.29335995821
 30
0.0
 11
37913.73156321093
 21
12042.29335995821
 31
0.0
 12
37872.06489654427
 22
12292.29335995821
 32
0.0
 13
37872.06489654427
 23
12292.29335995821
 33
0.0
  0
MTEXT
  5
C43
330
B48
100
AcDbEntity
  8
Dimension (ISO)
100
AcDbMText
 10
37431.52641669546
 20
13054.30392381263
 30
0.0
 40
350.0
 41
0.0
 71
     2
 72
     1
  1
\A1;950
  7
Label Text (ISO)
 11
0.0000000000000001
 21
1.0
 31
0.0
 73
     1
 44
1.0
1001
ACAD
1000
MTEXTBEGIN
1070
    73
1070
     1
1070
    44
1040
1.0
1070
    74
1070
     0
1000
MTEXTEND
  0
POINT
  5
C44
330
B48
100
AcDbEntity
  8
Defpoints
 62
     0
100
AcDbPoint
 10
37138.27136869952
 20
12292.29335995821
 30
0.0
  0
POINT
  5
C45
330
B48
100
AcDbEntity
  8
Defpoints
 62
     0
100
AcDbPoint
 10
37820.52866868411
 20
11342.29335995728
 30
0.0
  0
POINT
  5
C46
330
B48
100
AcDbEntity
  8
Defpoints
 62
     0
100
AcDbPoint
 10
37872.06489654427
 20
11342.29335995728
 30
0.0
  0
ENDBLK
  5
B4A
330
B48
100
AcDbEntity
  8
0
100
AcDbBlockEnd
  0
BLOCK
  5
C49
330
C48
100
AcDbEntity
  8
0
100
AcDbBlockBegin
  2
*D15
 70
     1
 10
0.0
 20
0.0
 30
0.0
  3
*D15
  1

  0
LINE
  5
D24
330
C48
100
AcDbEntity
  8
Dimension (ISO)
100
AcDbLine
 10
32108.27136869952
 20
13612.29335995814
 30
0.0
 11
31654.77696881781
 21
13612.29335995814
 31
0.0
  0
LINE
  5
D25
330
C48
100
AcDbEntity
  8
Dimension (ISO)
100
AcDbLine
 10
31754.77696881781
 20
13362.29335995814
 30
0.0
 11
31754.77696881781
 21
11592.29335995739
 31
0.0
  0
SOLID
  5
D26
330
C48
100
AcDbEntity
  8
Dimension (ISO)
100
AcDbTrace
 10
31713.11030215114
 20
13362.29335995814
 30
0.0
 11
31796.44363548447
 21
13362.29335995814
 31
0.0
 12
31754.77696881781
 22
13612.29335995814
 32
0.0
 13
31754.77696881781
 23
13612.29335995814
 33
0.0
  0
SOLID
  5
D27
330
C48
100
AcDbEntity
  8
Dimension (ISO)
100
AcDbTrace
 10
31713.11030215114
 20
11592.29335995739
 30
0.0
 11
31796.44363548447
 21
11592.29335995739
 31
0.0
 12
31754.77696881781
 22
11342.29335995739
 32
0.0
 13
31754.77696881781
 23
11342.29335995739
 33
0.0
  0
MTEXT
  5
D28
330
C48
100
AcDbEntity
  8
Dimension (ISO)
100
AcDbMText
 10
31314.00343188522
 20
12477.29335995776
 30
0.0
 40
350.0
 41
0.0
 71
     2
 72
     1
  1
\A1;2270
  7
Label Text (ISO)
 11
0.0000000000000001
 21
1.0
 31
0.0
 73
     1
 44
1.0
1001
ACAD
1000
MTEXTBEGIN
1070
    73
1070
     1
1070
    44
1040
1.0
1070
    74
1070
     0
1000
MTEXTEND
  0
POINT
  5
D29
330
C48
100
AcDbEntity
  8
Defpoints
 62
     0
100
AcDbPoint
 10
32158.27136869952
 20
13612.29335995814
 30
0.0
  0
POINT
  5
D2A
330
C48
100
AcDbEntity
  8
Defpoints
 62
     0
100
AcDbPoint
 10
31754.77696881781
 20
11342.29335995739
 30
0.0
  0
POINT
  5
D2B
330
C48
100
AcDbEntity
  8
Defpoints
 62
     0
100
AcDbPoint
 10
31754.77696881781
 20
11342.29335995739
 30
0.0
  0
ENDBLK
  5
C4A
330
C48
100
AcDbEntity
  8
0
100
AcDbBlockEnd
  0
BLOCK
  5
D2D
330
D2C
100
AcDbEntity
  8
0
100
AcDbBlockBegin
  2
Tabelki rysunkowe Rzut
 70
     2
 10
0.0
 20
0.0
 30
0.0
  3
Tabelki rysunkowe Rzut
  1

  0
TEXT
  5
D2F
330
D2C
100
AcDbEntity
  8
Title (ISO)
100
AcDbText
 10
166.7768162971836
 20
11.24130542460445
 30
0.0
 40
2.5
  1
Obowiązuje od:
  7
Note Text (ISO)
 11
166.7768162971836
 21
13.74130542460445
 31
0.0
100
AcDbText
 73
     3
  0
TEXT
  5
D31
330
D2C
100
AcDbEntity
  8
Title (ISO)
100
AcDbText
 10
166.7768162971836
 20
18.24130542460445
 30
0.0
 40
2.5
  1
Nr kat.:
  7
Note Text (ISO)
 11
166.7768162971836
 21
20.74130542460446
 31
0.0
100
AcDbText
 73
     3
  0
TEXT
  5
D32
330
D2C
100
AcDbEntity
  8
Title (ISO)
100
AcDbText
 10
166.7768162971836
 20
14.74130542460445
 30
0.0
 40
2.5
  1
Nazwa:
  7
Note Text (ISO)
 11
166.7768162971836
 21
17.24130542460445
 31
0.0
100
AcDbText
 73
     3
  0
ATTDEF
  5
D33
102
{ACAD_XDICTIONARY
360
D3E
102
}
330
D2C
100
AcDbEntity
  8
Title (ISO)
100
AcDbText
 10
178.7768162971835
 20
18.24130542460445
 30
0.0
 40
2.5
  1

  7
Note Text (ISO)
 11
178.7768162971835
 21
20.74130542460446
 31
0.0
100
AcDbAttributeDefinition
  3
Numer katalogowy
  2
Numer_katalogowy
 70
     0
 74
     3
  0
ATTDEF
  5
D35
102
{ACAD_XDICTIONARY
360
D41
102
}
330
D2C
100
AcDbEntity
  8
Title (ISO)
100
AcDbText
 10
190.4107988369825
 20
11.13720873189256
 30
0.0
 40
2.5
  1
2019-03-26
  7
Note Text (ISO)
100
AcDbAttributeDefinition
  3
DATA UTWORZENIA
  2
DATA_UTWORZENIA_001
 70
     0
  0
ATTDEF
  5
D36
102
{ACAD_XDICTIONARY
360
D44
102
}
330
D2C
100
AcDbEntity
  8
Title (ISO)
100
AcDbText
 10
178.7768162971835
 20
14.74130542460445
 30
0.0
 40
2.5
  1

  7
Note Text (ISO)
 11
178.7768162971835
 21
17.24130542460445
 31
0.0
100
AcDbAttributeDefinition
  3
Nazwa
  2
Nazwa
 70
     0
 74
     3
  0
ENDBLK
  5
D2E
330
D2C
100
AcDbEntity
  8
0
100
AcDbBlockEnd
  0
BLOCK
  5
DAB
330
DAA
100
AcDbEntity
  8
0
100
AcDbBlockBegin
  2
88501_Street-workout-parkour-1
 70
     0
 10
0.0
 20
0.0
 30
0.0
  3
88501_Street-workout-parkour-1
  1

  0
ARC
  5
DAD
330
DAA
100
AcDbEntity
  8
Visible (ISO)
100
AcDbCircle
 10
-137.8499999999985
 20
1705.999999999997
 30
0.0
 40
4.000000000000117
100
AcDbArc
 50
90.0
 51
180.0
  0
ARC
  5
DAE
330
DAA
100
AcDbEntity
  8
Visible (ISO)
100
AcDbCircle
 10
104.1500000000087
 20
1705.999999999998
 30
0.0
 40
3.999999999999976
100
AcDbArc
 50
0.0
 51
90.0
  0
ARC
  5
DAF
330
DAA
100
AcDbEntity
  8
Visible (ISO)
100
AcDbCircle
 10
-137.8499999999985
 20
714.0000000000009
 30
0.0
 40
3.999999999999691
100
AcDbArc
 50
180.0
 51
270.0
  0
ARC
  5
DB0
330
DAA
100
AcDbEntity
  8
Visible (ISO)
100
AcDbCircle
 10
104.1500000000087
 20
714.0000000000009
 30
0.0
 40
4.000000000000294
100
AcDbArc
 50
270.0
 51
0.0
  0
LINE
  5
DB1
330
DAA
100
AcDbEntity
  8
Visible (ISO)
100
AcDbLine
 10
-137.8499999999985
 20
1709.999999999997
 30
0.0
 11
104.1500000000087
 21
1709.999999999997
 31
0.0
  0
LINE
  5
DB2
330
DAA
100
AcDbEntity
  8
Visible (ISO)
100
AcDbLine
 10
-141.8499999999985
 20
714.0000000000009
 30
0.0
 11
-141.8499999999985
 21
1705.999999999997
 31
0.0
  0
LINE
  5
DB3
330
DAA
100
AcDbEntity
  8
Visible (ISO)
100
AcDbLine
 10
108.1500000000014
 20
1705.999999999998
 30
0.0
 11
108.1500000000014
 21
714.0000000000009
 31
0.0
  0
LINE
  5
DB4
330
DAA
100
AcDbEntity
  8
Visible (ISO)
100
AcDbLine
 10
-126.8499999999912
 20
725.0000000000008
 30
0.0
 11
-126.8499999999912
 21
1694.999999999997
 31
0.0
  0
LINE
  5
DB5
330
DAA
100
AcDbEntity
  8
Visible (ISO)
100
AcDbLine
 10
93.15000000000145
 20
725.0000000000008
 30
0.0
 11
-126.8499999999912
 21
725.0000000000008
 31
0.0
  0
LINE
  5
DB6
330
DAA
100
AcDbEntity
  8
Visible (ISO)
100
AcDbLine
 10
-126.8499999999912
 20
1694.999999999997
 30
0.0
 11
93.15000000000145
 21
1694.999999999997
 31
0.0
  0
LINE
  5
DB7
330
DAA
100
AcDbEntity
  8
Visible (ISO)
100
AcDbLine
 10
93.15000000000145
 20
1694.999999999997
 30
0.0
 11
93.15000000000145
 21
725.0000000000008
 31
0.0
  0
ARC
  5
DB8
330
DAA
100
AcDbEntity
  8
Visible (ISO)
100
AcDbCircle
 10
104.1500000000014
 20
705.999999999999
 30
0.0
 40
4.000000000000108
100
AcDbArc
 50
0.0
 51
90.0
  0
ARC
  5
DB9
330
DAA
100
AcDbEntity
  8
Visible (ISO)
100
AcDbCircle
 10
104.1500000000014
 20
464.0000000000009
 30
0.0
 40
3.999999999999966
100
AcDbArc
 50
270.0
 51
0.0
  0
ARC
  5
DBA
330
DAA
100
AcDbEntity
  8
Visible (ISO)
100
AcDbCircle
 10
-887.8499999999913
 20
705.999999999999
 30
0.0
 40
3.999999999999682
100
AcDbArc
 50
90.0
 51
180.0
  0
ARC
  5
DBB
330
DAA
100
AcDbEntity
  8
Visible (ISO)
100
AcDbCircle
 10
-887.8499999999913
 20
464.0000000000009
 30
0.0
 40
4.000000000000285
100
AcDbArc
 50
180.0
 51
270.0
  0
LINE
  5
DBC
330
DAA
100
AcDbEntity
  8
Visible (ISO)
100
AcDbLine
 10
108.1500000000014
 20
705.999999999999
 30
0.0
 11
108.1500000000014
 21
464.0000000000009
 31
0.0
  0
LINE
  5
DBD
330
DAA
100
AcDbEntity
  8
Visible (ISO)
100
AcDbLine
 10
-887.8499999999913
 20
709.9999999999981
 30
0.0
 11
104.1500000000014
 21
709.999999999999
 31
0.0
  0
LINE
  5
DBE
330
DAA
100
AcDbEntity
  8
Visible (ISO)
100
AcDbLine
 10
-891.8499999999985
 20
464.0
 30
0.0
 11
-891.8499999999985
 21
705.999999999999
 31
0.0
  0
LINE
  5
DBF
330
DAA
100
AcDbEntity
  8
Visible (ISO)
100
AcDbLine
 10
104.1500000000014
 20
460.0
 30
0.0
 11
-887.8499999999913
 21
460.0
 31
0.0
  0
LINE
  5
DC0
330
DAA
100
AcDbEntity
  8
Visible (ISO)
100
AcDbLine
 10
-876.8499999999912
 20
694.9999999999981
 30
0.0
 11
93.15000000000145
 21
694.9999999999981
 31
0.0
  0
LINE
  5
DC1
330
DAA
100
AcDbEntity
  8
Visible (ISO)
100
AcDbLine
 10
-876.8499999999912
 20
475.0
 30
0.0
 11
-876.8499999999912
 21
694.9999999999981
 31
0.0
  0
LINE
  5
DC2
330
DAA
100
AcDbEntity
  8
Visible (ISO)
100
AcDbLine
 10
93.15000000000145
 20
694.9999999999981
 30
0.0
 11
93.15000000000145
 21
475.0000000000008
 31
0.0
  0
LINE
  5
DC3
330
DAA
100
AcDbEntity
  8
Visible (ISO)
100
AcDbLine
 10
93.15000000000145
 20
475.0000000000008
 30
0.0
 11
-876.8499999999912
 21
475.0
 31
0.0
  0
ARC
  5
DC4
330
DAA
100
AcDbEntity
  8
Visible (ISO)
100
AcDbCircle
 10
-895.8499999999913
 20
705.999999999999
 30
0.0
 40
4.000000000000125
100
AcDbArc
 50
0.0
 51
90.0
  0
ARC
  5
DC5
330
DAA
100
AcDbEntity
  8
Visible (ISO)
100
AcDbCircle
 10
-895.8499999999913
 20
464.0
 30
0.0
 40
3.999999999999982
100
AcDbArc
 50
270.0
 51
0.0
  0
ARC
  5
DC6
330
DAA
100
AcDbEntity
  8
Visible (ISO)
100
AcDbCircle
 10
-1887.849999999998
 20
705.999999999999
 30
0.0
 40
3.999999999999698
100
AcDbArc
 50
90.0
 51
180.0
  0
ARC
  5
DC7
330
DAA
100
AcDbEntity
  8
Visible (ISO)
100
AcDbCircle
 10
-1887.849999999998
 20
464.0
 30
0.0
 40
4.000000000000302
100
AcDbArc
 50
180.0
 51
270.0
  0
LINE
  5
DC8
330
DAA
100
AcDbEntity
  8
Visible (ISO)
100
AcDbLine
 10
-891.8499999999985
 20
705.999999999999
 30
0.0
 11
-891.8499999999985
 21
464.0
 31
0.0
  0
LINE
  5
DC9
330
DAA
100
AcDbEntity
  8
Visible (ISO)
100
AcDbLine
 10
-1887.849999999998
 20
709.999999999999
 30
0.0
 11
-895.8499999999913
 21
709.999999999999
 31
0.0
  0
LINE
  5
DCA
330
DAA
100
AcDbEntity
  8
Visible (ISO)
100
AcDbLine
 10
-1891.849999999995
 20
464.0
 30
0.0
 11
-1891.849999999995
 21
705.999999999999
 31
0.0
  0
LINE
  5
DCB
330
DAA
100
AcDbEntity
  8
Visible (ISO)
100
AcDbLine
 10
-895.8499999999913
 20
460.0
 30
0.0
 11
-1887.849999999998
 21
459.999999999999
 31
0.0
  0
LINE
  5
DCC
330
DAA
100
AcDbEntity
  8
Visible (ISO)
100
AcDbLine
 10
-1876.849999999995
 20
694.9999999999981
 30
0.0
 11
-906.8499999999986
 21
694.9999999999991
 31
0.0
  0
LINE
  5
DCD
330
DAA
100
AcDbEntity
  8
Visible (ISO)
100
AcDbLine
 10
-1876.849999999995
 20
475.0
 30
0.0
 11
-1876.849999999995
 21
694.9999999999981
 31
0.0
  0
LINE
  5
DCE
330
DAA
100
AcDbEntity
  8
Visible (ISO)
100
AcDbLine
 10
-906.8499999999986
 20
694.9999999999991
 30
0.0
 11
-906.8499999999986
 21
475.0000000000008
 31
0.0
  0
LINE
  5
DCF
330
DAA
100
AcDbEntity
  8
Visible (ISO)
100
AcDbLine
 10
-906.8499999999986
 20
475.0000000000008
 30
0.0
 11
-1876.849999999995
 21
475.0
 31
0.0
  0
ARC
  5
DD0
330
DAA
100
AcDbEntity
  8
Visible (ISO)
100
AcDbCircle
 10
1612.150000000001
 20
1704.999999999996
 30
0.0
 40
4.000000000000119
100
AcDbArc
 50
90.0
 51
180.0
  0
ARC
  5
DD1
330
DAA
100
AcDbEntity
  8
Visible (ISO)
100
AcDbCircle
 10
1854.150000000009
 20
1704.999999999996
 30
0.0
 40
3.999999999999976
100
AcDbArc
 50
0.0
 51
90.0
  0
ARC
  5
DD2
330
DAA
100
AcDbEntity
  8
Visible (ISO)
100
AcDbCircle
 10
1612.150000000001
 20
713.0
 30
0.0
 40
3.999999999999693
100
AcDbArc
 50
180.0
 51
270.0
  0
ARC
  5
DD3
330
DAA
100
AcDbEntity
  8
Visible (ISO)
100
AcDbCircle
 10
1854.150000000009
 20
713.0
 30
0.0
 40
4.000000000000296
100
AcDbArc
 50
270.0
 51
0.0
  0
LINE
  5
DD4
330
DAA
100
AcDbEntity
  8
Visible (ISO)
100
AcDbLine
 10
1612.150000000001
 20
1708.999999999997
 30
0.0
 11
1854.150000000009
 21
1708.999999999997
 31
0.0
  0
LINE
  5
DD5
330
DAA
100
AcDbEntity
  8
Visible (ISO)
100
AcDbLine
 10
1608.150000000001
 20
713.0
 30
0.0
 11
1608.150000000001
 21
1704.999999999996
 31
0.0
  0
LINE
  5
DD6
330
DAA
100
AcDbEntity
  8
Visible (ISO)
100
AcDbLine
 10
1854.150000000009
 20
709.0000000000009
 30
0.0
 11
1612.150000000001
 21
709.0000000000009
 31
0.0
  0
LINE
  5
DD7
330
DAA
100
AcDbEntity
  8
Visible (ISO)
100
AcDbLine
 10
1858.150000000001
 20
1704.999999999996
 30
0.0
 11
1858.150000000001
 21
713.0
 31
0.0
  0
LINE
  5
DD8
330
DAA
100
AcDbEntity
  8
Visible (ISO)
100
AcDbLine
 10
1623.150000000009
 20
724.0
 30
0.0
 11
1623.150000000009
 21
1693.999999999996
 31
0.0
  0
LINE
  5
DD9
330
DAA
100
AcDbEntity
  8
Visible (ISO)
100
AcDbLine
 10
1843.150000000001
 20
724.0000000000009
 30
0.0
 11
1623.150000000009
 21
724.0
 31
0.0
  0
LINE
  5
DDA
330
DAA
100
AcDbEntity
  8
Visible (ISO)
100
AcDbLine
 10
1623.150000000009
 20
1693.999999999996
 30
0.0
 11
1843.150000000001
 21
1693.999999999996
 31
0.0
  0
LINE
  5
DDB
330
DAA
100
AcDbEntity
  8
Visible (ISO)
100
AcDbLine
 10
1843.150000000001
 20
1693.999999999997
 30
0.0
 11
1843.150000000001
 21
724.0000000000009
 31
0.0
  0
ARC
  5
DDC
330
DAA
100
AcDbEntity
  8
Visible (ISO)
100
AcDbCircle
 10
1862.150000000008
 20
713.0000000000027
 30
0.0
 40
4.000000000000103
100
AcDbArc
 50
180.0
 51
270.0
  0
ARC
  5
DDD
330
DAA
100
AcDbEntity
  8
Visible (ISO)
100
AcDbCircle
 10
1862.150000000008
 20
955.0000000000009
 30
0.0
 40
3.99999999999996
100
AcDbArc
 50
90.0
 51
180.0
  0
ARC
  5
DDE
330
DAA
100
AcDbEntity
  8
Visible (ISO)
100
AcDbCircle
 10
2854.150000000002
 20
713.0000000000027
 30
0.0
 40
3.999999999999677
100
AcDbArc
 50
270.0
 51
0.0
  0
ARC
  5
DDF
330
DAA
100
AcDbEntity
  8
Visible (ISO)
100
AcDbCircle
 10
2854.150000000002
 20
955.0000000000009
 30
0.0
 40
4.00000000000028
100
AcDbArc
 50
0.0
 51
90.0
  0
LINE
  5
DE0
330
DAA
100
AcDbEntity
  8
Visible (ISO)
100
AcDbLine
 10
2854.150000000002
 20
709.0000000000036
 30
0.0
 11
1862.150000000008
 21
709.0000000000027
 31
0.0
  0
LINE
  5
DE1
330
DAA
100
AcDbEntity
  8
Visible (ISO)
100
AcDbLine
 10
1862.150000000008
 20
959.0000000000017
 30
0.0
 11
2854.150000000002
 21
959.0000000000017
 31
0.0
  0
LINE
  5
DE2
330
DAA
100
AcDbEntity
  8
Visible (ISO)
100
AcDbLine
 10
2843.150000000001
 20
724.0000000000027
 30
0.0
 11
1873.150000000009
 21
724.0000000000027
 31
0.0
  0
LINE
  5
DE3
330
DAA
100
AcDbEntity
  8
Visible (ISO)
100
AcDbLine
 10
2843.149999999994
 20
944.000000000001
 30
0.0
 11
2843.150000000001
 21
724.0000000000027
 31
0.0
  0
LINE
  5
DE4
330
DAA
100
AcDbEntity
  8
Visible (ISO)
100
AcDbLine
 10
1873.150000000009
 20
724.0000000000027
 30
0.0
 11
1873.150000000009
 21
944.000000000001
 31
0.0
  0
LINE
  5
DE5
330
DAA
100
AcDbEntity
  8
Visible (ISO)
100
AcDbLine
 10
1873.150000000009
 20
944.000000000001
 30
0.0
 11
2843.150000000001
 21
944.000000000001
 31
0.0
  0
ARC
  5
DE6
330
DAA
100
AcDbEntity
  8
Visible (ISO)
100
AcDbCircle
 10
2862.150000000001
 20
1704.999999999994
 30
0.0
 40
4.000000000000093
100
AcDbArc
 50
90.0
 51
180.0
  0
ARC
  5
DE7
330
DAA
100
AcDbEntity
  8
Visible (ISO)
100
AcDbCircle
 10
3104.150000000002
 20
1704.999999999994
 30
0.0
 40
3.99999999999995
100
AcDbArc
 50
0.0
 51
90.0
  0
ARC
  5
DE8
330
DAA
100
AcDbEntity
  8
Visible (ISO)
100
AcDbCircle
 10
2862.150000000001
 20
713.0000000000036
 30
0.0
 40
3.999999999999666
100
AcDbArc
 50
180.0
 51
270.0
  0
ARC
  5
DE9
330
DAA
100
AcDbEntity
  8
Visible (ISO)
100
AcDbCircle
 10
3104.150000000002
 20
713.0000000000045
 30
0.0
 40
4.00000000000027
100
AcDbArc
 50
270.0
 51
0.0
  0
LINE
  5
DEA
330
DAA
100
AcDbEntity
  8
Visible (ISO)
100
AcDbLine
 10
2862.150000000001
 20
1708.999999999995
 30
0.0
 11
3104.150000000002
 21
1708.999999999995
 31
0.0
  0
LINE
  5
DEB
330
DAA
100
AcDbEntity
  8
Visible (ISO)
100
AcDbLine
 10
2858.150000000002
 20
713.0000000000036
 30
0.0
 11
2858.150000000002
 21
1704.999999999994
 31
0.0
  0
LINE
  5
DEC
330
DAA
100
AcDbEntity
  8
Visible (ISO)
100
AcDbLine
 10
3104.150000000002
 20
709.0000000000046
 30
0.0
 11
2862.150000000001
 21
709.0000000000046
 31
0.0
  0
LINE
  5
DED
330
DAA
100
AcDbEntity
  8
Visible (ISO)
100
AcDbLine
 10
3108.150000000002
 20
1704.999999999995
 30
0.0
 11
3108.150000000002
 21
713.0000000000045
 31
0.0
  0
LINE
  5
DEE
330
DAA
100
AcDbEntity
  8
Visible (ISO)
100
AcDbLine
 10
2873.150000000009
 20
724.0000000000036
 30
0.0
 11
2873.150000000009
 21
1693.999999999994
 31
0.0
  0
LINE
  5
DEF
330
DAA
100
AcDbEntity
  8
Visible (ISO)
100
AcDbLine
 10
3093.150000000001
 20
724.0000000000045
 30
0.0
 11
2873.150000000009
 21
724.0000000000036
 31
0.0
  0
LINE
  5
DF0
330
DAA
100
AcDbEntity
  8
Visible (ISO)
100
AcDbLine
 10
2873.150000000009
 20
1693.999999999994
 30
0.0
 11
3093.150000000001
 21
1693.999999999994
 31
0.0
  0
LINE
  5
DF1
330
DAA
100
AcDbEntity
  8
Visible (ISO)
100
AcDbLine
 10
3093.150000000001
 20
1693.999999999995
 30
0.0
 11
3093.150000000001
 21
724.0000000000045
 31
0.0
  0
LINE
  5
DF2
330
DAA
100
AcDbEntity
  8
Visible (ISO)
100
AcDbLine
 10
-126.8499999999912
 20
724.9999999999991
 30
0.0
 11
93.15000000000145
 21
724.9999999999991
 31
0.0
  0
LINE
  5
DF3
330
DAA
100
AcDbEntity
  8
Visible (ISO)
100
AcDbLine
 10
93.15000000000145
 20
724.9999999999991
 30
0.0
 11
93.15000000000145
 21
1694.999999999999
 31
0.0
  0
LINE
  5
DF4
330
DAA
100
AcDbEntity
  8
Visible (ISO)
100
AcDbLine
 10
-126.8499999999912
 20
1694.999999999999
 30
0.0
 11
-126.8499999999912
 21
724.9999999999991
 31
0.0
  0
LINE
  5
DF5
330
DAA
100
AcDbEntity
  8
Visible (ISO)
100
AcDbLine
 10
93.15000000000145
 20
1694.999999999999
 30
0.0
 11
-126.8499999999912
 21
1694.999999999999
 31
0.0
  0
LINE
  5
DF6
330
DAA
100
AcDbEntity
  8
Visible (ISO)
100
AcDbLine
 10
-876.8499999999912
 20
694.9999999999981
 30
0.0
 11
-876.8499999999912
 21
474.9999999999991
 31
0.0
  0
LINE
  5
DF7
330
DAA
100
AcDbEntity
  8
Visible (ISO)
100
AcDbLine
 10
-876.8499999999912
 20
474.9999999999991
 30
0.0
 11
93.15000000000145
 21
475.0
 31
0.0
  0
LINE
  5
DF8
330
DAA
100
AcDbEntity
  8
Visible (ISO)
100
AcDbLine
 10
93.15000000000145
 20
694.9999999999981
 30
0.0
 11
-876.8499999999912
 21
694.9999999999981
 31
0.0
  0
LINE
  5
DF9
330
DAA
100
AcDbEntity
  8
Visible (ISO)
100
AcDbLine
 10
93.15000000000145
 20
475.0
 30
0.0
 11
93.15000000000145
 21
694.9999999999981
 31
0.0
  0
LINE
  5
DFA
330
DAA
100
AcDbEntity
  8
Visible (ISO)
100
AcDbLine
 10
-1876.849999999995
 20
694.9999999999991
 30
0.0
 11
-1876.849999999995
 21
474.9999999999991
 31
0.0
  0
LINE
  5
DFB
330
DAA
100
AcDbEntity
  8
Visible (ISO)
100
AcDbLine
 10
-1876.849999999995
 20
474.9999999999991
 30
0.0
 11
-906.8499999999986
 21
474.9999999999991
 31
0.0
  0
LINE
  5
DFC
330
DAA
100
AcDbEntity
  8
Visible (ISO)
100
AcDbLine
 10
-906.8499999999986
 20
694.9999999999991
 30
0.0
 11
-1876.849999999995
 21
694.9999999999991
 31
0.0
  0
LINE
  5
DFD
330
DAA
100
AcDbEntity
  8
Visible (ISO)
100
AcDbLine
 10
-906.8499999999986
 20
474.9999999999991
 30
0.0
 11
-906.8499999999986
 21
694.9999999999991
 31
0.0
  0
LINE
  5
DFE
330
DAA
100
AcDbEntity
  8
Visible (ISO)
100
AcDbLine
 10
1623.150000000009
 20
723.9999999999981
 30
0.0
 11
1843.150000000001
 21
723.9999999999991
 31
0.0
  0
LINE
  5
DFF
330
DAA
100
AcDbEntity
  8
Visible (ISO)
100
AcDbLine
 10
1843.150000000001
 20
723.9999999999991
 30
0.0
 11
1843.150000000001
 21
1693.999999999999
 31
0.0
  0
LINE
  5
E00
330
DAA
100
AcDbEntity
  8
Visible (ISO)
100
AcDbLine
 10
1623.150000000009
 20
1693.999999999998
 30
0.0
 11
1623.150000000009
 21
723.9999999999981
 31
0.0
  0
LINE
  5
E01
330
DAA
100
AcDbEntity
  8
Visible (ISO)
100
AcDbLine
 10
1843.150000000001
 20
1693.999999999999
 30
0.0
 11
1623.150000000009
 21
1693.999999999998
 31
0.0
  0
LINE
  5
E02
330
DAA
100
AcDbEntity
  8
Visible (ISO)
100
AcDbLine
 10
2843.150000000001
 20
724.0000000000027
 30
0.0
 11
2843.150000000001
 21
944.0000000000027
 31
0.0
  0
LINE
  5
E03
330
DAA
100
AcDbEntity
  8
Visible (ISO)
100
AcDbLine
 10
2843.150000000001
 20
944.0000000000027
 30
0.0
 11
1873.150000000009
 21
944.0000000000019
 31
0.0
  0
LINE
  5
E04
330
DAA
100
AcDbEntity
  8
Visible (ISO)
100
AcDbLine
 10
1873.150000000009
 20
724.0000000000027
 30
0.0
 11
2843.150000000001
 21
724.0000000000027
 31
0.0
  0
LINE
  5
E05
330
DAA
100
AcDbEntity
  8
Visible (ISO)
100
AcDbLine
 10
1873.150000000009
 20
944.0000000000019
 30
0.0
 11
1873.150000000009
 21
724.0000000000027
 31
0.0
  0
LINE
  5
E06
330
DAA
100
AcDbEntity
  8
Visible (ISO)
100
AcDbLine
 10
2873.150000000009
 20
724.0000000000017
 30
0.0
 11
3093.150000000001
 21
724.0000000000027
 31
0.0
  0
LINE
  5
E07
330
DAA
100
AcDbEntity
  8
Visible (ISO)
100
AcDbLine
 10
3093.150000000001
 20
724.0000000000027
 30
0.0
 11
3093.150000000001
 21
1693.999999999997
 31
0.0
  0
LINE
  5
E08
330
DAA
100
AcDbEntity
  8
Visible (ISO)
100
AcDbLine
 10
2873.150000000009
 20
1693.999999999996
 30
0.0
 11
2873.150000000009
 21
724.0000000000017
 31
0.0
  0
LINE
  5
E09
330
DAA
100
AcDbEntity
  8
Visible (ISO)
100
AcDbLine
 10
3093.150000000001
 20
1693.999999999997
 30
0.0
 11
2873.150000000009
 21
1693.999999999996
 31
0.0
  0
LINE
  5
E0A
330
DAA
100
AcDbEntity
  8
Visible (ISO)
100
AcDbLine
 10
0.0
 20
459.999999999999
 30
0.0
 11
0.0
 21
-460.0
 31
0.0
  0
LINE
  5
E0B
330
DAA
100
AcDbEntity
  8
Visible (ISO)
100
AcDbLine
 10
-33.69999999998981
 20
459.999999999999
 30
0.0
 11
-33.69999999998981
 21
-460.0
 31
0.0
  0
LINE
  5
E0C
330
DAA
100
AcDbEntity
  8
Visible (ISO)
100
AcDbLine
 10
10.650000000016
 20
-459.999999999999
 30
0.0
 11
20.65000000001601
 21
-459.999999999999
 31
0.0
  0
LINE
  5
E0D
330
DAA
100
AcDbEntity
  8
Visible (ISO)
100
AcDbLine
 10
20.65000000001601
 20
-465.0
 30
0.0
 11
20.65000000001601
 21
-459.999999999999
 31
0.0
  0
LINE
  5
E0E
330
DAA
100
AcDbEntity
  8
Visible (ISO)
100
AcDbLine
 10
-54.34999999998399
 20
-459.999999999999
 30
0.0
 11
-44.34999999998399
 21
-459.999999999999
 31
0.0
  0
LINE
  5
E0F
330
DAA
100
AcDbEntity
  8
Visible (ISO)
100
AcDbLine
 10
-54.34999999998399
 20
-459.999999999999
 30
0.0
 11
-54.34999999998399
 21
-465.0
 31
0.0
  0
LINE
  5
E10
330
DAA
100
AcDbEntity
  8
Visible (ISO)
100
AcDbLine
 10
10.650000000016
 20
-459.999999999999
 30
0.0
 11
-44.34999999998399
 21
-459.999999999999
 31
0.0
  0
LINE
  5
E11
330
DAA
100
AcDbEntity
  8
Visible (ISO)
100
AcDbLine
 10
-3766.849999999992
 20
547.5000000000018
 30
0.0
 11
-3761.849999999988
 21
547.5000000000018
 31
0.0
  0
LINE
  5
E12
330
DAA
100
AcDbEntity
  8
Visible (ISO)
100
AcDbLine
 10
-3761.849999999988
 20
557.5000000000017
 30
0.0
 11
-3761.849999999988
 21
547.5000000000018
 31
0.0
  0
LINE
  5
E13
330
DAA
100
AcDbEntity
  8
Visible (ISO)
100
AcDbLine
 10
-3761.849999999988
 20
622.5000000000027
 30
0.0
 11
-3761.849999999988
 21
612.5000000000027
 31
0.0
  0
LINE
  5
E14
330
DAA
100
AcDbEntity
  8
Visible (ISO)
100
AcDbLine
 10
-3761.849999999988
 20
622.5000000000027
 30
0.0
 11
-3766.849999999992
 21
622.5000000000027
 31
0.0
  0
LINE
  5
E15
330
DAA
100
AcDbEntity
  8
Visible (ISO)
100
AcDbLine
 10
-3761.849999999988
 20
557.5000000000017
 30
0.0
 11
-3761.849999999988
 21
612.5000000000027
 31
0.0
  0
LINE
  5
E16
330
DAA
100
AcDbEntity
  8
Visible (ISO)
100
AcDbLine
 10
-71.84999999999854
 20
-487.5
 30
0.0
 11
-71.84999999999854
 21
-477.5
 31
0.0
  0
LINE
  5
E17
330
DAA
100
AcDbEntity
  8
Visible (ISO)
100
AcDbLine
 10
-66.85000000000582
 20
-477.5
 30
0.0
 11
-71.84999999999854
 21
-477.5
 31
0.0
  0
LINE
  5
E18
330
DAA
100
AcDbEntity
  8
Visible (ISO)
100
AcDbLine
 10
-71.84999999999854
 20
-552.5
 30
0.0
 11
-71.84999999999854
 21
-542.4999999999999
 31
0.0
  0
LINE
  5
E19
330
DAA
100
AcDbEntity
  8
Visible (ISO)
100
AcDbLine
 10
-71.84999999999854
 20
-552.5
 30
0.0
 11
-66.85000000000582
 21
-552.5
 31
0.0
  0
LINE
  5
E1A
330
DAA
100
AcDbEntity
  8
Visible (ISO)
100
AcDbLine
 10
-71.84999999999854
 20
-487.5
 30
0.0
 11
-71.84999999999854
 21
-542.4999999999999
 31
0.0
  0
LINE
  5
E1B
330
DAA
100
AcDbEntity
  8
Visible (ISO)
100
AcDbLine
 10
-1661.850000000006
 20
-542.4999999999999
 30
0.0
 11
-1661.850000000006
 21
-552.5
 31
0.0
  0
LINE
  5
E1C
330
DAA
100
AcDbEntity
  8
Visible (ISO)
100
AcDbLine
 10
-1666.850000000002
 20
-552.5
 30
0.0
 11
-1661.850000000006
 21
-552.5
 31
0.0
  0
LINE
  5
E1D
330
DAA
100
AcDbEntity
  8
Visible (ISO)
100
AcDbLine
 10
-1661.850000000006
 20
-477.5
 30
0.0
 11
-1661.850000000006
 21
-487.5
 31
0.0
  0
LINE
  5
E1E
330
DAA
100
AcDbEntity
  8
Visible (ISO)
100
AcDbLine
 10
-1661.850000000006
 20
-477.5
 30
0.0
 11
-1666.850000000002
 21
-477.5
 31
0.0
  0
LINE
  5
E1F
330
DAA
100
AcDbEntity
  8
Visible (ISO)
100
AcDbLine
 10
-1661.850000000006
 20
-542.4999999999999
 30
0.0
 11
-1661.850000000006
 21
-487.5
 31
0.0
  0
LINE
  5
E20
330
DAA
100
AcDbEntity
  8
Visible (ISO)
100
AcDbLine
 10
-3789.34999999993
 20
640.0000000000027
 30
0.0
 11
-3779.349999999926
 21
640.0000000000027
 31
0.0
  0
LINE
  5
E21
330
DAA
100
AcDbEntity
  8
Visible (ISO)
100
AcDbLine
 10
-3779.349999999926
 20
635.0000000000018
 30
0.0
 11
-3779.349999999926
 21
640.0000000000027
 31
0.0
  0
LINE
  5
E22
330
DAA
100
AcDbEntity
  8
Visible (ISO)
100
AcDbLine
 10
-3854.34999999993
 20
640.0000000000027
 30
0.0
 11
-3844.34999999993
 21
640.0000000000027
 31
0.0
  0
LINE
  5
E23
330
DAA
100
AcDbEntity
  8
Visible (ISO)
100
AcDbLine
 10
-3854.349999999925
 20
640.0000000000027
 30
0.0
 11
-3854.349999999925
 21
635.0000000000018
 31
0.0
  0
LINE
  5
E24
330
DAA
100
AcDbEntity
  8
Visible (ISO)
100
AcDbLine
 10
-3789.349999999926
 20
640.0000000000027
 30
0.0
 11
-3844.349999999926
 21
640.0000000000027
 31
0.0
  0
LINE
  5
E25
330
DAA
100
AcDbEntity
  8
Visible (ISO)
100
AcDbLine
 10
-3844.34999999993
 20
1830.000000000001
 30
0.0
 11
-3854.34999999993
 21
1830.000000000001
 31
0.0
  0
LINE
  5
E26
330
DAA
100
AcDbEntity
  8
Visible (ISO)
100
AcDbLine
 10
-3854.349999999925
 20
1835.000000000002
 30
0.0
 11
-3854.349999999925
 21
1830.000000000001
 31
0.0
  0
LINE
  5
E27
330
DAA
100
AcDbEntity
  8
Visible (ISO)
100
AcDbLine
 10
-3779.349999999926
 20
1830.000000000001
 30
0.0
 11
-3789.34999999993
 21
1830.000000000001
 31
0.0
  0
LINE
  5
E28
330
DAA
100
AcDbEntity
  8
Visible (ISO)
100
AcDbLine
 10
-3779.349999999926
 20
1830.000000000001
 30
0.0
 11
-3779.349999999926
 21
1835.000000000002
 31
0.0
  0
LINE
  5
E29
330
DAA
100
AcDbEntity
  8
Visible (ISO)
100
AcDbLine
 10
-3844.349999999926
 20
1830.000000000001
 30
0.0
 11
-3789.349999999926
 21
1830.000000000001
 31
0.0
  0
LINE
  5
E2A
330
DAA
100
AcDbEntity
  8
Visible (ISO)
100
AcDbLine
 10
-3761.849999999999
 20
-495.9999999999972
 30
0.0
 11
-3533.700000000001
 21
-495.9999999999972
 31
0.0
  0
LINE
  5
E2B
330
DAA
100
AcDbEntity
  8
Visible (ISO)
100
AcDbLine
 10
-3500.0
 20
-495.9999999999972
 30
0.0
 11
-3233.700000000001
 21
-495.9999999999982
 31
0.0
  0
LINE
  5
E2C
330
DAA
100
AcDbEntity
  8
Visible (ISO)
100
AcDbLine
 10
-3199.999999999997
 20
-495.9999999999982
 30
0.0
 11
-2933.699999999994
 21
-495.9999999999982
 31
0.0
  0
LINE
  5
E2D
330
DAA
100
AcDbEntity
  8
Visible (ISO)
100
AcDbLine
 10
-2899.999999999997
 20
-495.9999999999982
 30
0.0
 11
-2633.699999999994
 21
-495.9999999999982
 31
0.0
  0
LINE
  5
E2E
330
DAA
100
AcDbEntity
  8
Visible (ISO)
100
AcDbLine
 10
-2599.999999999996
 20
-495.9999999999982
 30
0.0
 11
-2333.69999999999
 21
-495.9999999999982
 31
0.0
  0
LINE
  5
E2F
330
DAA
100
AcDbEntity
  8
Visible (ISO)
100
AcDbLine
 10
-2299.999999999989
 20
-495.9999999999991
 30
0.0
 11
-2033.699999999994
 21
-495.9999999999991
 31
0.0
  0
LINE
  5
E30
330
DAA
100
AcDbEntity
  8
Visible (ISO)
100
AcDbLine
 10
-1999.999999999989
 20
-495.9999999999991
 30
0.0
 11
-1771.849999999969
 21
-495.9999999999991
 31
0.0
  0
LINE
  5
E31
330
DAA
100
AcDbEntity
  8
Visible (ISO)
100
AcDbLine
 10
-3761.849999999999
 20
-533.9999999999982
 30
0.0
 11
-1771.849999999969
 21
-534.0
 31
0.0
  0
LINE
  5
E32
330
DAA
100
AcDbEntity
  8
Visible (ISO)
100
AcDbLine
 10
-1771.849999999969
 20
-487.5
 30
0.0
 11
-1771.849999999969
 21
-477.5
 31
0.0
  0
LINE
  5
E33
330
DAA
100
AcDbEntity
  8
Visible (ISO)
100
AcDbLine
 10
-1766.849999999973
 20
-477.499999999999
 30
0.0
 11
-1771.849999999969
 21
-477.499999999999
 31
0.0
  0
LINE
  5
E34
330
DAA
100
AcDbEntity
  8
Visible (ISO)
100
AcDbLine
 10
-1771.849999999969
 20
-552.499999999999
 30
0.0
 11
-1771.849999999969
 21
-542.499999999999
 31
0.0
  0
LINE
  5
E35
330
DAA
100
AcDbEntity
  8
Visible (ISO)
100
AcDbLine
 10
-1771.849999999969
 20
-552.499999999999
 30
0.0
 11
-1766.849999999973
 21
-552.499999999999
 31
0.0
  0
LINE
  5
E36
330
DAA
100
AcDbEntity
  8
Visible (ISO)
100
AcDbLine
 10
-1771.849999999969
 20
-487.4999999999991
 30
0.0
 11
-1771.849999999969
 21
-542.499999999999
 31
0.0
  0
LINE
  5
E37
330
DAA
100
AcDbEntity
  8
Visible (ISO)
100
AcDbLine
 10
-3766.849999999992
 20
-552.4999999999972
 30
0.0
 11
-3761.849999999988
 21
-552.4999999999972
 31
0.0
  0
LINE
  5
E38
330
DAA
100
AcDbEntity
  8
Visible (ISO)
100
AcDbLine
 10
-3761.849999999988
 20
-542.4999999999973
 30
0.0
 11
-3761.849999999988
 21
-552.4999999999972
 31
0.0
  0
LINE
  5
E39
330
DAA
100
AcDbEntity
  8
Visible (ISO)
100
AcDbLine
 10
-3761.849999999988
 20
-477.4999999999981
 30
0.0
 11
-3761.849999999988
 21
-487.4999999999982
 31
0.0
  0
LINE
  5
E3A
330
DAA
100
AcDbEntity
  8
Visible (ISO)
100
AcDbLine
 10
-3761.849999999988
 20
-477.4999999999972
 30
0.0
 11
-3766.849999999992
 21
-477.4999999999972
 31
0.0
  0
LINE
  5
E3B
330
DAA
100
AcDbEntity
  8
Visible (ISO)
100
AcDbLine
 10
-3761.849999999988
 20
-542.4999999999973
 30
0.0
 11
-3761.849999999988
 21
-487.4999999999972
 31
0.0
  0
LINE
  5
E3C
330
DAA
100
AcDbEntity
  8
Visible (ISO)
100
AcDbLine
 10
-3499.999999999989
 20
-495.9999999999972
 30
0.0
 11
-3533.699999999993
 21
-495.9999999999972
 31
0.0
  0
LINE
  5
E3D
330
DAA
100
AcDbEntity
  8
Visible (ISO)
100
AcDbLine
 10
-3533.699999999993
 20
566.0000000000173
 30
0.0
 11
-3499.999999999989
 21
566.0000000000173
 31
0.0
  0
LINE
  5
E3E
330
DAA
100
AcDbEntity
  8
Visible (ISO)
100
AcDbLine
 10
-3533.699999999993
 20
-495.9999999999972
 30
0.0
 11
-3533.69999999999
 21
566.0000000000173
 31
0.0
  0
LINE
  5
E3F
330
DAA
100
AcDbEntity
  8
Visible (ISO)
100
AcDbLine
 10
-3499.999999999989
 20
-495.9999999999972
 30
0.0
 11
-3499.999999999989
 21
566.0000000000173
 31
0.0
  0
LINE
  5
E40
330
DAA
100
AcDbEntity
  8
Visible (ISO)
100
AcDbLine
 10
-3199.999999999989
 20
-495.9999999999972
 30
0.0
 11
-3233.699999999994
 21
-495.9999999999972
 31
0.0
  0
LINE
  5
E41
330
DAA
100
AcDbEntity
  8
Visible (ISO)
100
AcDbLine
 10
-3233.699999999994
 20
566.0000000000173
 30
0.0
 11
-3199.999999999989
 21
566.0000000000173
 31
0.0
  0
LINE
  5
E42
330
DAA
100
AcDbEntity
  8
Visible (ISO)
100
AcDbLine
 10
-3233.699999999994
 20
-495.9999999999972
 30
0.0
 11
-3233.69999999999
 21
566.0000000000173
 31
0.0
  0
LINE
  5
E43
330
DAA
100
AcDbEntity
  8
Visible (ISO)
100
AcDbLine
 10
-3199.999999999989
 20
-495.9999999999972
 30
0.0
 11
-3199.999999999989
 21
566.0000000000173
 31
0.0
  0
LINE
  5
E44
330
DAA
100
AcDbEntity
  8
Visible (ISO)
100
AcDbLine
 10
-2899.999999999993
 20
-495.9999999999982
 30
0.0
 11
-2933.699999999994
 21
-495.9999999999982
 31
0.0
  0
LINE
  5
E45
330
DAA
100
AcDbEntity
  8
Visible (ISO)
100
AcDbLine
 10
-2933.699999999994
 20
566.0000000000163
 30
0.0
 11
-2899.999999999993
 21
566.0000000000163
 31
0.0
  0
LINE
  5
E46
330
DAA
100
AcDbEntity
  8
Visible (ISO)
100
AcDbLine
 10
-2933.699999999994
 20
-495.9999999999982
 30
0.0
 11
-2933.699999999994
 21
566.0000000000163
 31
0.0
  0
LINE
  5
E47
330
DAA
100
AcDbEntity
  8
Visible (ISO)
100
AcDbLine
 10
-2899.999999999993
 20
-495.9999999999982
 30
0.0
 11
-2899.999999999993
 21
566.0000000000163
 31
0.0
  0
LINE
  5
E48
330
DAA
100
AcDbEntity
  8
Visible (ISO)
100
AcDbLine
 10
-2599.999999999993
 20
-495.9999999999982
 30
0.0
 11
-2633.699999999994
 21
-495.9999999999982
 31
0.0
  0
LINE
  5
E49
330
DAA
100
AcDbEntity
  8
Visible (ISO)
100
AcDbLine
 10
-2633.699999999994
 20
566.0000000000163
 30
0.0
 11
-2599.999999999993
 21
566.0000000000163
 31
0.0
  0
LINE
  5
E4A
330
DAA
100
AcDbEntity
  8
Visible (ISO)
100
AcDbLine
 10
-2633.699999999994
 20
-495.9999999999982
 30
0.0
 11
-2633.69999999999
 21
566.0000000000163
 31
0.0
  0
LINE
  5
E4B
330
DAA
100
AcDbEntity
  8
Visible (ISO)
100
AcDbLine
 10
-2599.999999999993
 20
-495.9999999999982
 30
0.0
 11
-2599.999999999993
 21
566.0000000000163
 31
0.0
  0
LINE
  5
E4C
330
DAA
100
AcDbEntity
  8
Visible (ISO)
100
AcDbLine
 10
-2299.999999999989
 20
-495.9999999999982
 30
0.0
 11
-2333.699999999994
 21
-495.9999999999982
 31
0.0
  0
LINE
  5
E4D
330
DAA
100
AcDbEntity
  8
Visible (ISO)
100
AcDbLine
 10
-2333.699999999994
 20
566.0000000000163
 30
0.0
 11
-2299.999999999989
 21
566.0000000000163
 31
0.0
  0
LINE
  5
E4E
330
DAA
100
AcDbEntity
  8
Visible (ISO)
100
AcDbLine
 10
-2333.699999999994
 20
-495.9999999999982
 30
0.0
 11
-2333.69999999999
 21
566.0000000000163
 31
0.0
  0
LINE
  5
E4F
330
DAA
100
AcDbEntity
  8
Visible (ISO)
100
AcDbLine
 10
-2299.999999999989
 20
-495.9999999999982
 30
0.0
 11
-2299.999999999989
 21
566.0000000000163
 31
0.0
  0
LINE
  5
E50
330
DAA
100
AcDbEntity
  8
Visible (ISO)
100
AcDbLine
 10
-1999.999999999996
 20
-495.9999999999991
 30
0.0
 11
-2033.699999999994
 21
-495.9999999999991
 31
0.0
  0
LINE
  5
E51
330
DAA
100
AcDbEntity
  8
Visible (ISO)
100
AcDbLine
 10
-2033.699999999994
 20
566.0000000000154
 30
0.0
 11
-1999.999999999996
 21
566.0000000000154
 31
0.0
  0
LINE
  5
E52
330
DAA
100
AcDbEntity
  8
Visible (ISO)
100
AcDbLine
 10
-2033.699999999994
 20
-495.9999999999991
 30
0.0
 11
-2033.699999999994
 21
566.0000000000154
 31
0.0
  0
LINE
  5
E53
330
DAA
100
AcDbEntity
  8
Visible (ISO)
100
AcDbLine
 10
-1999.999999999996
 20
-495.9999999999991
 30
0.0
 11
-1999.999999999996
 21
566.0000000000154
 31
0.0
  0
LINE
  5
E54
330
DAA
100
AcDbEntity
  8
Visible (ISO)
100
AcDbLine
 10
-3761.849999999988
 20
601.8500000000012
 30
0.0
 11
-1891.849999999995
 21
601.8499999999995
 31
0.0
  0
LINE
  5
E55
330
DAA
100
AcDbEntity
  8
Visible (ISO)
100
AcDbLine
 10
-3761.849999999988
 20
568.1500000000023
 30
0.0
 11
-1891.849999999995
 21
568.1500000000005
 31
0.0
  0
LINE
  5
E56
330
DAA
100
AcDbEntity
  8
Visible (ISO)
100
AcDbLine
 10
-71.84999999999854
 20
-531.8499999999994
 30
0.0
 11
-1661.850000000006
 21
-531.8499999999994
 31
0.0
  0
LINE
  5
E57
330
DAA
100
AcDbEntity
  8
Visible (ISO)
100
AcDbLine
 10
-71.84999999999854
 20
-498.1499999999996
 30
0.0
 11
-1661.850000000006
 21
-498.1499999999987
 31
0.0
  0
LINE
  5
E58
330
DAA
100
AcDbEntity
  8
Visible (ISO)
100
AcDbLine
 10
-3856.849999999992
 20
-459.9999999999981
 30
0.0
 11
-3846.849999999995
 21
-459.9999999999981
 31
0.0
  0
LINE
  5
E59
330
DAA
100
AcDbEntity
  8
Visible (ISO)
100
AcDbLine
 10
-3786.849999999995
 20
-459.9999999999981
 30
0.0
 11
-3776.849999999996
 21
-459.9999999999981
 31
0.0
  0
LINE
  5
E5A
330
DAA
100
AcDbEntity
  8
Visible (ISO)
100
AcDbLine
 10
-3776.849999999991
 20
-464.9999999999981
 30
0.0
 11
-3776.849999999991
 21
-459.9999999999981
 31
0.0
  0
LINE
  5
E5B
330
DAA
100
AcDbEntity
  8
Visible (ISO)
100
AcDbLine
 10
-3856.849999999992
 20
-459.9999999999981
 30
0.0
 11
-3856.849999999992
 21
-464.9999999999981
 31
0.0
  0
LINE
  5
E5C
330
DAA
100
AcDbEntity
  8
Visible (ISO)
100
AcDbLine
 10
-3786.849999999995
 20
-459.9999999999981
 30
0.0
 11
-3846.849999999995
 21
-459.9999999999981
 31
0.0
  0
LINE
  5
E5D
330
DAA
100
AcDbEntity
  8
Visible (ISO)
100
AcDbLine
 10
-3776.849999999996
 20
530.0000000000036
 30
0.0
 11
-3786.849999999995
 21
530.0000000000036
 31
0.0
  0
LINE
  5
E5E
330
DAA
100
AcDbEntity
  8
Visible (ISO)
100
AcDbLine
 10
-3846.849999999995
 20
530.0000000000036
 30
0.0
 11
-3856.849999999992
 21
530.0000000000036
 31
0.0
  0
LINE
  5
E5F
330
DAA
100
AcDbEntity
  8
Visible (ISO)
100
AcDbLine
 10
-3856.849999999992
 20
535.0000000000036
 30
0.0
 11
-3856.849999999992
 21
530.0000000000036
 31
0.0
  0
LINE
  5
E60
330
DAA
100
AcDbEntity
  8
Visible (ISO)
100
AcDbLine
 10
-3776.849999999991
 20
530.0000000000036
 30
0.0
 11
-3776.849999999991
 21
535.0000000000036
 31
0.0
  0
LINE
  5
E61
330
DAA
100
AcDbEntity
  8
Visible (ISO)
100
AcDbLine
 10
-3846.849999999995
 20
530.0000000000036
 30
0.0
 11
-3786.849999999995
 21
530.0000000000036
 31
0.0
  0
LINE
  5
E62
330
DAA
100
AcDbEntity
  8
Visible (ISO)
100
AcDbLine
 10
-3799.999999999993
 20
530.0000000000036
 30
0.0
 11
-3799.999999999993
 21
-459.999999999999
 31
0.0
  0
LINE
  5
E63
330
DAA
100
AcDbEntity
  8
Visible (ISO)
100
AcDbLine
 10
-3833.69999999999
 20
530.0000000000046
 30
0.0
 11
-3833.69999999999
 21
-459.999999999999
 31
0.0
  0
LINE
  5
E64
330
DAA
100
AcDbEntity
  8
Visible (ISO)
100
AcDbLine
 10
-3799.999999999931
 20
1830.000000000001
 30
0.0
 11
-3799.999999999931
 21
640.0000000000018
 31
0.0
  0
LINE
  5
E65
330
DAA
100
AcDbEntity
  8
Visible (ISO)
100
AcDbLine
 10
-3833.699999999931
 20
1830.000000000001
 30
0.0
 11
-3833.699999999931
 21
640.0000000000018
 31
0.0
  0
CIRCLE
  5
E66
330
DAA
100
AcDbEntity
  8
Visible (ISO)
100
AcDbCircle
 10
1566.390874455435
 20
-843.3844605869079
 30
0.0
 40
4.188000000000005
  0
CIRCLE
  5
E67
330
DAA
100
AcDbEntity
  8
Visible (ISO)
100
AcDbCircle
 10
1530.765539413092
 20
-774.2408744554323
 30
0.0
 40
4.188000000000005
  0
CIRCLE
  5
E68
330
DAA
100
AcDbEntity
  8
Visible (ISO)
100
AcDbCircle
 10
1599.909125544567
 20
-738.6155394130891
 30
0.0
 40
4.188000000000005
  0
CIRCLE
  5
E69
330
DAA
100
AcDbEntity
  8
Visible (ISO)
100
AcDbCircle
 10
1635.534460586903
 20
-807.7591255445659
 30
0.0
 40
4.188000000000005
  0
CIRCLE
  5
E6A
330
DAA
100
AcDbEntity
  8
Visible (ISO)
100
AcDbCircle
 10
1583.150000000001
 20
-790.9999999999991
 30
0.0
 40
81.50000000000011
  0
CIRCLE
  5
E6B
330
DAA
100
AcDbEntity
  8
Visible (ISO)
100
AcDbCircle
 10
1814.969178304032
 20
-1447.8758430899
 30
0.0
 40
4.188
  0
CIRCLE
  5
E6C
330
DAA
100
AcDbEntity
  8
Visible (ISO)
100
AcDbCircle
 10
1779.343843261696
 20
-1378.732256958425
 30
0.0
 40
4.188
  0
CIRCLE
  5
E6D
330
DAA
100
AcDbEntity
  8
Visible (ISO)
100
AcDbCircle
 10
1848.487429393172
 20
-1343.106921916082
 30
0.0
 40
4.188
  0
CIRCLE
  5
E6E
330
DAA
100
AcDbEntity
  8
Visible (ISO)
100
AcDbCircle
 10
1884.112764435507
 20
-1412.250508047558
 30
0.0
 40
4.188
  0
CIRCLE
  5
E6F
330
DAA
100
AcDbEntity
  8
Visible (ISO)
100
AcDbCircle
 10
1831.728303848606
 20
-1395.491382502991
 30
0.0
 40
81.50000000000003
  0
CIRCLE
  5
E70
330
DAA
100
AcDbEntity
  8
Visible (ISO)
100
AcDbCircle
 10
3323.631984069383
 20
-1405.410561195186
 30
0.0
 40
4.187999999999982
  0
CIRCLE
  5
E71
330
DAA
100
AcDbEntity
  8
Visible (ISO)
100
AcDbCircle
 10
3293.251704584451
 20
-1333.807218965809
 30
0.0
 40
4.187999999999982
  0
CIRCLE
  5
E72
330
DAA
100
AcDbEntity
  8
Visible (ISO)
100
AcDbCircle
 10
3364.855046813835
 20
-1303.426939480877
 30
0.0
 40
4.187999999999982
  0
CIRCLE
  5
E73
330
DAA
100
AcDbEntity
  8
Visible (ISO)
100
AcDbCircle
 10
3395.23532629876
 20
-1375.030281710255
 30
0.0
 40
4.187999999999982
  0
CIRCLE
  5
E74
330
DAA
100
AcDbEntity
  8
Visible (ISO)
100
AcDbCircle
 10
3344.243515441609
 20
-1354.418750338032
 30
0.0
 40
81.49999999999968
  0
CIRCLE
  5
E75
330
DAA
100
AcDbEntity
  8
Visible (ISO)
100
AcDbCircle
 10
2803.350192801081
 20
-1723.128725807318
 30
0.0
 40
4.187999999999993
  0
CIRCLE
  5
E76
330
DAA
100
AcDbEntity
  8
Visible (ISO)
100
AcDbCircle
 10
2726.835349966889
 20
-1737.110100062321
 30
0.0
 40
4.187999999999993
  0
CIRCLE
  5
E77
330
DAA
100
AcDbEntity
  8
Visible (ISO)
100
AcDbCircle
 10
2712.853975711885
 20
-1660.595257228127
 30
0.0
 40
4.187999999999993
  0
CIRCLE
  5
E78
330
DAA
100
AcDbEntity
  8
Visible (ISO)
100
AcDbCircle
 10
2789.368818546078
 20
-1646.613882973123
 30
0.0
 40
4.187999999999993
  0
CIRCLE
  5
E79
330
DAA
100
AcDbEntity
  8
Visible (ISO)
100
AcDbCircle
 10
2758.102084256484
 20
-1691.861991517722
 30
0.0
 40
81.49999999999987
  0
CIRCLE
  5
E7A
330
DAA
100
AcDbEntity
  8
Visible (ISO)
100
AcDbCircle
 10
2436.973083818041
 20
-1121.901391969188
 30
0.0
 40
4.187999999999989
  0
CIRCLE
  5
E7B
330
DAA
100
AcDbEntity
  8
Visible (ISO)
100
AcDbCircle
 10
2402.216649506292
 20
-1052.316980827521
 30
0.0
 40
4.187999999999989
  0
CIRCLE
  5
E7C
330
DAA
100
AcDbEntity
  8
Visible (ISO)
100
AcDbCircle
 10
2471.801060647959
 20
-1017.560546515765
 30
0.0
 40
4.187999999999989
  0
CIRCLE
  5
E7D
330
DAA
100
AcDbEntity
  8
Visible (ISO)
100
AcDbCircle
 10
2506.557494959714
 20
-1087.144957657433
 30
0.0
 40
4.187999999999989
  0
CIRCLE
  5
E7E
330
DAA
100
AcDbEntity
  8
Visible (ISO)
100
AcDbCircle
 10
2454.387072233003
 20
-1069.730969242477
 30
0.0
 40
81.49999999999982
  0
ARC
  5
E7F
330
DAA
100
AcDbEntity
  8
Visible (ISO)
100
AcDbCircle
 10
-3863.849999999926
 20
632.0000000000018
 30
0.0
 40
3.000000000000007
100
AcDbArc
 50
90.0
 51
180.0
  0
ARC
  5
E80
330
DAA
100
AcDbEntity
  8
Visible (ISO)
100
AcDbCircle
 10
-3769.849999999926
 20
632.0000000000018
 30
0.0
 40
3.000000000000007
100
AcDbArc
 50
0.0
 51
90.0
  0
LINE
  5
E81
330
DAA
100
AcDbEntity
  8
Visible (ISO)
100
AcDbLine
 10
-3769.849999999926
 20
635.0000000000018
 30
0.0
 11
-3863.849999999926
 21
635.0000000000018
 31
0.0
  0
ARC
  5
E82
330
DAA
100
AcDbEntity
  8
Visible (ISO)
100
AcDbCircle
 10
-3863.849999999926
 20
538.0000000000018
 30
0.0
 40
2.999999999999989
100
AcDbArc
 50
180.0
 51
270.0
  0
ARC
  5
E83
330
DAA
100
AcDbEntity
  8
Visible (ISO)
100
AcDbCircle
 10
-3769.849999999926
 20
538.0000000000018
 30
0.0
 40
3.000000000000007
100
AcDbArc
 50
270.0
 51
0.0
  0
LINE
  5
E84
330
DAA
100
AcDbEntity
  8
Visible (ISO)
100
AcDbLine
 10
-3766.849999999926
 20
538.0000000000018
 30
0.0
 11
-3766.849999999926
 21
632.0000000000018
 31
0.0
  0
LINE
  5
E85
330
DAA
100
AcDbEntity
  8
Visible (ISO)
100
AcDbLine
 10
-3863.849999999926
 20
535.0000000000018
 30
0.0
 11
-3769.849999999926
 21
535.0000000000018
 31
0.0
  0
LINE
  5
E86
330
DAA
100
AcDbEntity
  8
Visible (ISO)
100
AcDbLine
 10
-3866.849999999926
 20
632.0000000000018
 30
0.0
 11
-3866.849999999926
 21
538.0000000000018
 31
0.0
  0
ARC
  5
E87
330
DAA
100
AcDbEntity
  8
Visible (ISO)
100
AcDbCircle
 10
-3863.849999999992
 20
-467.9999999999981
 30
0.0
 40
3.000000000000007
100
AcDbArc
 50
90.0
 51
180.0
  0
ARC
  5
E88
330
DAA
100
AcDbEntity
  8
Visible (ISO)
100
AcDbCircle
 10
-3769.849999999991
 20
-467.9999999999981
 30
0.0
 40
3.000000000000007
100
AcDbArc
 50
0.0
 51
90.0
  0
LINE
  5
E89
330
DAA
100
AcDbEntity
  8
Visible (ISO)
100
AcDbLine
 10
-3769.849999999991
 20
-464.9999999999981
 30
0.0
 11
-3863.849999999992
 21
-464.9999999999981
 31
0.0
  0
ARC
  5
E8A
330
DAA
100
AcDbEntity
  8
Visible (ISO)
100
AcDbCircle
 10
-3863.849999999992
 20
-561.9999999999972
 30
0.0
 40
2.999999999999989
100
AcDbArc
 50
180.0
 51
270.0
  0
ARC
  5
E8B
330
DAA
100
AcDbEntity
  8
Visible (ISO)
100
AcDbCircle
 10
-3769.849999999991
 20
-561.9999999999972
 30
0.0
 40
3.000000000000007
100
AcDbArc
 50
270.0
 51
0.0
  0
LINE
  5
E8C
330
DAA
100
AcDbEntity
  8
Visible (ISO)
100
AcDbLine
 10
-3766.849999999992
 20
-561.9999999999972
 30
0.0
 11
-3766.849999999992
 21
-467.9999999999981
 31
0.0
  0
LINE
  5
E8D
330
DAA
100
AcDbEntity
  8
Visible (ISO)
100
AcDbLine
 10
-3863.849999999992
 20
-564.9999999999972
 30
0.0
 11
-3769.849999999991
 21
-564.9999999999972
 31
0.0
  0
LINE
  5
E8E
330
DAA
100
AcDbEntity
  8
Visible (ISO)
100
AcDbLine
 10
-3866.849999999992
 20
-467.9999999999981
 30
0.0
 11
-3866.849999999992
 21
-561.9999999999972
 31
0.0
  0
ARC
  5
E8F
330
DAA
100
AcDbEntity
  8
Visible (ISO)
100
AcDbCircle
 10
-1763.849999999973
 20
-468.0
 30
0.0
 40
3.000000000000007
100
AcDbArc
 50
90.0
 51
180.0
  0
ARC
  5
E90
330
DAA
100
AcDbEntity
  8
Visible (ISO)
100
AcDbCircle
 10
-1669.84999999998
 20
-468.0
 30
0.0
 40
3.000000000000007
100
AcDbArc
 50
0.0
 51
90.0
  0
LINE
  5
E91
330
DAA
100
AcDbEntity
  8
Visible (ISO)
100
AcDbLine
 10
-1669.84999999998
 20
-465.0
 30
0.0
 11
-1763.849999999973
 21
-465.0
 31
0.0
  0
ARC
  5
E92
330
DAA
100
AcDbEntity
  8
Visible (ISO)
100
AcDbCircle
 10
-1763.849999999973
 20
-561.9999999999991
 30
0.0
 40
2.999999999999989
100
AcDbArc
 50
180.0
 51
270.0
  0
ARC
  5
E93
330
DAA
100
AcDbEntity
  8
Visible (ISO)
100
AcDbCircle
 10
-1669.84999999998
 20
-561.9999999999991
 30
0.0
 40
3.000000000000007
100
AcDbArc
 50
270.0
 51
0.0
  0
LINE
  5
E94
330
DAA
100
AcDbEntity
  8
Visible (ISO)
100
AcDbLine
 10
-1666.84999999998
 20
-561.9999999999991
 30
0.0
 11
-1666.84999999998
 21
-468.0
 31
0.0
  0
LINE
  5
E95
330
DAA
100
AcDbEntity
  8
Visible (ISO)
100
AcDbLine
 10
-1763.849999999973
 20
-564.999999999999
 30
0.0
 11
-1669.84999999998
 21
-564.999999999999
 31
0.0
  0
LINE
  5
E96
330
DAA
100
AcDbEntity
  8
Visible (ISO)
100
AcDbLine
 10
-1766.849999999973
 20
-468.0
 30
0.0
 11
-1766.849999999973
 21
-561.9999999999991
 31
0.0
  0
ARC
  5
E97
330
DAA
100
AcDbEntity
  8
Visible (ISO)
100
AcDbCircle
 10
-63.85000000000582
 20
-467.999999999999
 30
0.0
 40
3.000000000000007
100
AcDbArc
 50
90.0
 51
180.0
  0
ARC
  5
E98
330
DAA
100
AcDbEntity
  8
Visible (ISO)
100
AcDbCircle
 10
30.1499999999869
 20
-467.999999999999
 30
0.0
 40
3.000000000000007
100
AcDbArc
 50
0.0
 51
90.0
  0
LINE
  5
E99
330
DAA
100
AcDbEntity
  8
Visible (ISO)
100
AcDbLine
 10
30.1499999999869
 20
-464.999999999999
 30
0.0
 11
-63.85000000000582
 21
-464.999999999999
 31
0.0
  0
ARC
  5
E9A
330
DAA
100
AcDbEntity
  8
Visible (ISO)
100
AcDbCircle
 10
-63.85000000000582
 20
-561.9999999999982
 30
0.0
 40
2.999999999999989
100
AcDbArc
 50
180.0
 51
270.0
  0
ARC
  5
E9B
330
DAA
100
AcDbEntity
  8
Visible (ISO)
100
AcDbCircle
 10
30.1499999999869
 20
-561.9999999999982
 30
0.0
 40
3.000000000000007
100
AcDbArc
 50
270.0
 51
0.0
  0
LINE
  5
E9C
330
DAA
100
AcDbEntity
  8
Visible (ISO)
100
AcDbLine
 10
33.1499999999869
 20
-561.9999999999982
 30
0.0
 11
33.1499999999869
 21
-467.999999999999
 31
0.0
  0
LINE
  5
E9D
330
DAA
100
AcDbEntity
  8
Visible (ISO)
100
AcDbLine
 10
-63.85000000000582
 20
-564.9999999999981
 30
0.0
 11
30.1499999999869
 21
-564.9999999999981
 31
0.0
  0
LINE
  5
E9E
330
DAA
100
AcDbEntity
  8
Visible (ISO)
100
AcDbLine
 10
-66.85000000000582
 20
-467.999999999999
 30
0.0
 11
-66.85000000000582
 21
-561.9999999999991
 31
0.0
  0
ARC
  5
E9F
330
DAA
100
AcDbEntity
  8
Visible (ISO)
100
AcDbCircle
 10
-3863.84999999993
 20
1932.0
 30
0.0
 40
3.000000000000007
100
AcDbArc
 50
90.0
 51
180.0
  0
ARC
  5
EA0
330
DAA
100
AcDbEntity
  8
Visible (ISO)
100
AcDbCircle
 10
-3769.849999999929
 20
1932.0
 30
0.0
 40
3.000000000000007
100
AcDbArc
 50
0.0
 51
90.0
  0
LINE
  5
EA1
330
DAA
100
AcDbEntity
  8
Visible (ISO)
100
AcDbLine
 10
-3769.849999999929
 20
1935.000000000001
 30
0.0
 11
-3863.84999999993
 21
1935.000000000001
 31
0.0
  0
ARC
  5
EA2
330
DAA
100
AcDbEntity
  8
Visible (ISO)
100
AcDbCircle
 10
-3863.84999999993
 20
1838.000000000001
 30
0.0
 40
2.999999999999989
100
AcDbArc
 50
180.0
 51
270.0
  0
ARC
  5
EA3
330
DAA
100
AcDbEntity
  8
Visible (ISO)
100
AcDbCircle
 10
-3769.849999999929
 20
1838.000000000001
 30
0.0
 40
3.000000000000007
100
AcDbArc
 50
270.0
 51
0.0
  0
LINE
  5
EA4
330
DAA
100
AcDbEntity
  8
Visible (ISO)
100
AcDbLine
 10
-3766.849999999926
 20
1838.000000000001
 30
0.0
 11
-3766.849999999926
 21
1932.0
 31
0.0
  0
LINE
  5
EA5
330
DAA
100
AcDbEntity
  8
Visible (ISO)
100
AcDbLine
 10
-3863.84999999993
 20
1835.000000000001
 30
0.0
 11
-3769.849999999929
 21
1835.000000000001
 31
0.0
  0
LINE
  5
EA6
330
DAA
100
AcDbEntity
  8
Visible (ISO)
100
AcDbLine
 10
-3866.84999999993
 20
1932.0
 30
0.0
 11
-3866.84999999993
 21
1838.000000000001
 31
0.0
  0
ARC
  5
EA7
330
DAA
100
AcDbEntity
  8
Visible (ISO)
100
AcDbCircle
 10
3344.243515441609
 20
-1354.418750338031
 30
0.0
 40
1499.999999999999
100
AcDbArc
 50
286.9044111149613
 51
32.58383980599428
  0
LINE
  5
EA8
330
DAA
100
AcDbEntity
  8
Visible (ISO)
100
AcDbLine
 10
4608.150000000001
 20
1710.000000000002
 30
0.0
 11
4608.150000000001
 21
-546.6190237403853
 31
0.0
  0
ARC
  5
EA9
330
DAA
100
AcDbEntity
  8
Visible (ISO)
100
AcDbCircle
 10
3108.150000000002
 20
1710.000000000002
 30
0.0
 40
1500.0
100
AcDbArc
 50
0.0
 51
90.0
  0
LINE
  5
EAA
330
DAA
100
AcDbEntity
  8
Visible (ISO)
100
AcDbLine
 10
-3866.84999999993
 20
3210.0
 30
0.0
 11
3108.150000000002
 21
3210.000000000002
 31
0.0
  0
ARC
  5
EAB
330
DAA
100
AcDbEntity
  8
Visible (ISO)
100
AcDbCircle
 10
-3866.84999999993
 20
1640.000000000003
 30
0.0
 40
1569.999999999998
100
AcDbArc
 50
90.0
 51
180.0
  0
LINE
  5
EAC
330
DAA
100
AcDbEntity
  8
Visible (ISO)
100
AcDbLine
 10
-5436.849999999926
 20
-564.999999999999
 30
0.0
 11
-5436.849999999929
 21
1640.000000000002
 31
0.0
  0
ARC
  5
EAD
330
DAA
100
AcDbEntity
  8
Visible (ISO)
100
AcDbCircle
 10
-3936.849999999926
 20
-564.9999999999972
 30
0.0
 40
1500.000000000001
100
AcDbArc
 50
180.0
 51
270.0
  0
LINE
  5
EAE
330
DAA
100
AcDbEntity
  8
Visible (ISO)
100
AcDbLine
 10
1303.997372736056
 20
-2064.999999999998
 30
0.0
 11
-3936.849999999926
 21
-2064.999999999999
 31
0.0
  0
ARC
  5
EAF
330
DAA
100
AcDbEntity
  8
Visible (ISO)
100
AcDbCircle
 10
2757.102084256476
 20
-1692.861991517722
 30
0.0
 40
1499.999999999999
100
AcDbArc
 50
194.3646355868113
 51
313.0160714042333
  0
ENDBLK
  5
DAC
330
DAA
100
AcDbEntity
  8
0
100
AcDbBlockEnd
  0
ENDSEC
  0
SECTION
  2
ENTITIES
  0
LINE
  5
275
330
6C
100
AcDbEntity
  8
Visible (ISO)
100
AcDbLine
 10
33156.27136869952
 20
11764.29335995814
 30
0.0
 11
33148.27136869952
 21
11764.29335995814
 31
0.0
  0
LINE
  5
276
330
6C
100
AcDbEntity
  8
Visible (ISO)
100
AcDbLine
 10
33156.27136869952
 20
11772.29335995814
 30
0.0
 11
33156.27136869952
 21
11764.29335995814
 31
0.0
  0
LINE
  5
277
330
6C
100
AcDbEntity
  8
Visible (ISO)
100
AcDbLine
 10
33148.27136869952
 20
11764.29335995814
 30
0.0
 11
33156.27136869952
 21
11772.29335995814
 31
0.0
  0
LINE
  5
278
330
6C
100
AcDbEntity
  8
Visible (ISO)
100
AcDbLine
 10
34140.27136869951
 20
11772.29335995814
 30
0.0
 11
34148.27136869952
 21
11764.29335995814
 31
0.0
  0
LINE
  5
279
330
6C
100
AcDbEntity
  8
Visible (ISO)
100
AcDbLine
 10
34140.27136869951
 20
11764.29335995814
 30
0.0
 11
34140.27136869951
 21
11772.29335995814
 31
0.0
  0
LINE
  5
27A
330
6C
100
AcDbEntity
  8
Visible (ISO)
100
AcDbLine
 10
34148.27136869952
 20
11764.29335995814
 30
0.0
 11
34140.27136869951
 21
11764.29335995814
 31
0.0
  0
LINE
  5
27B
330
6C
100
AcDbEntity
  8
Visible (ISO)
100
AcDbLine
 10
34140.27136869951
 20
11772.29335995814
 30
0.0
 11
34073.2713686995
 21
11772.29335995814
 31
0.0
  0
LINE
  5
27C
330
6C
100
AcDbEntity
  8
Visible (ISO)
100
AcDbLine
 10
33973.27136869951
 20
11772.29335995814
 30
0.0
 11
33156.27136869952
 21
11772.29335995814
 31
0.0
  0
LINE
  5
27D
330
6C
100
AcDbEntity
  8
Visible (ISO)
100
AcDbLine
 10
33156.27136869952
 20
11764.29335995814
 30
0.0
 11
33973.27136869951
 21
11764.29335995814
 31
0.0
  0
LINE
  5
27E
330
6C
100
AcDbEntity
  8
Visible (ISO)
100
AcDbLine
 10
34073.2713686995
 20
11764.29335995814
 30
0.0
 11
34140.27136869951
 21
11764.29335995814
 31
0.0
  0
LINE
  5
27F
330
6C
100
AcDbEntity
  8
Visible (ISO)
100
AcDbLine
 10
34140.27136869951
 20
11764.29335995814
 30
0.0
 11
34140.27136869951
 21
11342.29335995814
 31
0.0
  0
LINE
  5
280
330
6C
100
AcDbEntity
  8
Visible (ISO)
100
AcDbLine
 10
34148.27136869952
 20
11342.29335995814
 30
0.0
 11
34148.27136869952
 21
11764.29335995814
 31
0.0
  0
LINE
  5
281
330
6C
100
AcDbEntity
  8
Visible (ISO)
100
AcDbLine
 10
33156.27136869952
 20
11342.29335995814
 30
0.0
 11
33156.27136869952
 21
11764.29335995814
 31
0.0
  0
LINE
  5
282
330
6C
100
AcDbEntity
  8
Visible (ISO)
100
AcDbLine
 10
33148.27136869952
 20
11764.29335995814
 30
0.0
 11
33148.27136869952
 21
11342.29335995814
 31
0.0
  0
LINE
  5
283
330
6C
100
AcDbEntity
  8
Visible (ISO)
100
AcDbLine
 10
32156.27136869952
 20
11764.29335995814
 30
0.0
 11
32148.27136869952
 21
11764.29335995814
 31
0.0
  0
LINE
  5
284
330
6C
100
AcDbEntity
  8
Visible (ISO)
100
AcDbLine
 10
32156.27136869952
 20
11772.29335995814
 30
0.0
 11
32156.27136869952
 21
11764.29335995814
 31
0.0
  0
LINE
  5
285
330
6C
100
AcDbEntity
  8
Visible (ISO)
100
AcDbLine
 10
32148.27136869952
 20
11764.29335995814
 30
0.0
 11
32156.27136869952
 21
11772.29335995814
 31
0.0
  0
LINE
  5
286
330
6C
100
AcDbEntity
  8
Visible (ISO)
100
AcDbLine
 10
33140.27136869951
 20
11772.29335995814
 30
0.0
 11
33148.27136869952
 21
11764.29335995814
 31
0.0
  0
LINE
  5
287
330
6C
100
AcDbEntity
  8
Visible (ISO)
100
AcDbLine
 10
33140.27136869951
 20
11764.29335995814
 30
0.0
 11
33140.27136869951
 21
11772.29335995814
 31
0.0
  0
LINE
  5
288
330
6C
100
AcDbEntity
  8
Visible (ISO)
100
AcDbLine
 10
33148.27136869952
 20
11764.29335995814
 30
0.0
 11
33140.27136869951
 21
11764.29335995814
 31
0.0
  0
LINE
  5
289
330
6C
100
AcDbEntity
  8
Visible (ISO)
100
AcDbLine
 10
33140.27136869951
 20
11772.29335995814
 30
0.0
 11
32373.27136869954
 21
11772.29335995814
 31
0.0
  0
LINE
  5
28A
330
6C
100
AcDbEntity
  8
Visible (ISO)
100
AcDbLine
 10
32273.27136869954
 20
11772.29335995814
 30
0.0
 11
32156.27136869952
 21
11772.29335995814
 31
0.0
  0
LINE
  5
28B
330
6C
100
AcDbEntity
  8
Visible (ISO)
100
AcDbLine
 10
32156.27136869952
 20
11764.29335995814
 30
0.0
 11
32273.27136869954
 21
11764.29335995814
 31
0.0
  0
LINE
  5
28C
330
6C
100
AcDbEntity
  8
Visible (ISO)
100
AcDbLine
 10
32373.27136869954
 20
11764.29335995814
 30
0.0
 11
33140.27136869951
 21
11764.29335995814
 31
0.0
  0
LINE
  5
28D
330
6C
100
AcDbEntity
  8
Visible (ISO)
100
AcDbLine
 10
33140.27136869951
 20
11764.29335995814
 30
0.0
 11
33140.27136869951
 21
11342.29335995814
 31
0.0
  0
LINE
  5
28E
330
6C
100
AcDbEntity
  8
Visible (ISO)
100
AcDbLine
 10
33148.27136869952
 20
11342.29335995814
 30
0.0
 11
33148.27136869952
 21
11764.29335995814
 31
0.0
  0
LINE
  5
28F
330
6C
100
AcDbEntity
  8
Visible (ISO)
100
AcDbLine
 10
32156.27136869952
 20
11342.29335995814
 30
0.0
 11
32156.27136869952
 21
11764.29335995814
 31
0.0
  0
LINE
  5
290
330
6C
100
AcDbEntity
  8
Visible (ISO)
100
AcDbLine
 10
32148.27136869952
 20
11764.29335995814
 30
0.0
 11
32148.27136869952
 21
11342.29335995814
 31
0.0
  0
LINE
  5
291
330
6C
100
AcDbEntity
  8
Visible (ISO)
100
AcDbLine
 10
33156.27136869952
 20
11772.29335995814
 30
0.0
 11
33148.27136869952
 21
11780.29335995814
 31
0.0
  0
LINE
  5
292
330
6C
100
AcDbEntity
  8
Visible (ISO)
100
AcDbLine
 10
33156.27136869952
 20
11780.29335995814
 30
0.0
 11
33156.27136869952
 21
11772.29335995814
 31
0.0
  0
LINE
  5
293
330
6C
100
AcDbEntity
  8
Visible (ISO)
100
AcDbLine
 10
33148.27136869952
 20
11780.29335995814
 30
0.0
 11
33156.27136869952
 21
11780.29335995814
 31
0.0
  0
LINE
  5
294
330
6C
100
AcDbEntity
  8
Visible (ISO)
100
AcDbLine
 10
33156.27136869952
 20
12204.29335995814
 30
0.0
 11
33148.27136869952
 21
12204.29335995814
 31
0.0
  0
LINE
  5
295
330
6C
100
AcDbEntity
  8
Visible (ISO)
100
AcDbLine
 10
33156.27136869952
 20
12212.29335995814
 30
0.0
 11
33156.27136869952
 21
12204.29335995814
 31
0.0
  0
LINE
  5
296
330
6C
100
AcDbEntity
  8
Visible (ISO)
100
AcDbLine
 10
33148.27136869952
 20
12204.29335995814
 30
0.0
 11
33156.27136869952
 21
12212.29335995814
 31
0.0
  0
LINE
  5
297
330
6C
100
AcDbEntity
  8
Visible (ISO)
100
AcDbLine
 10
34140.27136869951
 20
11780.29335995814
 30
0.0
 11
34148.27136869952
 21
11780.29335995814
 31
0.0
  0
LINE
  5
298
330
6C
100
AcDbEntity
  8
Visible (ISO)
100
AcDbLine
 10
34140.27136869951
 20
11772.29335995814
 30
0.0
 11
34140.27136869951
 21
11780.29335995814
 31
0.0
  0
LINE
  5
299
330
6C
100
AcDbEntity
  8
Visible (ISO)
100
AcDbLine
 10
34148.27136869952
 20
11780.29335995814
 30
0.0
 11
34140.27136869951
 21
11772.29335995814
 31
0.0
  0
LINE
  5
29A
330
6C
100
AcDbEntity
  8
Visible (ISO)
100
AcDbLine
 10
34140.27136869951
 20
11780.29335995814
 30
0.0
 11
34073.2713686995
 21
11780.29335995814
 31
0.0
  0
LINE
  5
29B
330
6C
100
AcDbEntity
  8
Visible (ISO)
100
AcDbLine
 10
33973.27136869951
 20
11780.29335995814
 30
0.0
 11
33156.27136869952
 21
11780.29335995814
 31
0.0
  0
LINE
  5
29C
330
6C
100
AcDbEntity
  8
Visible (ISO)
100
AcDbLine
 10
33156.27136869952
 20
11772.29335995814
 30
0.0
 11
33973.27136869951
 21
11772.29335995814
 31
0.0
  0
LINE
  5
29D
330
6C
100
AcDbEntity
  8
Visible (ISO)
100
AcDbLine
 10
34073.2713686995
 20
11772.29335995814
 30
0.0
 11
34140.27136869951
 21
11772.29335995814
 31
0.0
  0
LINE
  5
29E
330
6C
100
AcDbEntity
  8
Visible (ISO)
100
AcDbLine
 10
34140.27136869951
 20
12212.29335995814
 30
0.0
 11
34148.27136869952
 21
12204.29335995814
 31
0.0
  0
LINE
  5
29F
330
6C
100
AcDbEntity
  8
Visible (ISO)
100
AcDbLine
 10
34140.27136869951
 20
12204.29335995814
 30
0.0
 11
34140.27136869951
 21
12212.29335995814
 31
0.0
  0
LINE
  5
2A0
330
6C
100
AcDbEntity
  8
Visible (ISO)
100
AcDbLine
 10
34148.27136869952
 20
12204.29335995814
 30
0.0
 11
34140.27136869951
 21
12204.29335995814
 31
0.0
  0
LINE
  5
2A1
330
6C
100
AcDbEntity
  8
Visible (ISO)
100
AcDbLine
 10
34140.27136869951
 20
12212.29335995814
 30
0.0
 11
34073.2713686995
 21
12212.29335995814
 31
0.0
  0
LINE
  5
2A2
330
6C
100
AcDbEntity
  8
Visible (ISO)
100
AcDbLine
 10
33973.27136869951
 20
12212.29335995814
 30
0.0
 11
33156.27136869952
 21
12212.29335995814
 31
0.0
  0
LINE
  5
2A3
330
6C
100
AcDbEntity
  8
Visible (ISO)
100
AcDbLine
 10
33156.27136869952
 20
12204.29335995814
 30
0.0
 11
33973.27136869951
 21
12204.29335995814
 31
0.0
  0
LINE
  5
2A4
330
6C
100
AcDbEntity
  8
Visible (ISO)
100
AcDbLine
 10
34073.2713686995
 20
12204.29335995814
 30
0.0
 11
34140.27136869951
 21
12204.29335995814
 31
0.0
  0
LINE
  5
2A5
330
6C
100
AcDbEntity
  8
Visible (ISO)
100
AcDbLine
 10
34140.27136869951
 20
12204.29335995814
 30
0.0
 11
34140.27136869951
 21
11780.29335995814
 31
0.0
  0
LINE
  5
2A6
330
6C
100
AcDbEntity
  8
Visible (ISO)
100
AcDbLine
 10
34148.27136869952
 20
11780.29335995814
 30
0.0
 11
34148.27136869952
 21
12204.29335995814
 31
0.0
  0
LINE
  5
2A7
330
6C
100
AcDbEntity
  8
Visible (ISO)
100
AcDbLine
 10
33156.27136869952
 20
11780.29335995814
 30
0.0
 11
33156.27136869952
 21
12204.29335995814
 31
0.0
  0
LINE
  5
2A8
330
6C
100
AcDbEntity
  8
Visible (ISO)
100
AcDbLine
 10
33148.27136869952
 20
12204.29335995814
 30
0.0
 11
33148.27136869952
 21
11780.29335995814
 31
0.0
  0
LINE
  5
2A9
330
6C
100
AcDbEntity
  8
Visible (ISO)
100
AcDbLine
 10
32156.27136869952
 20
11772.29335995814
 30
0.0
 11
32148.27136869952
 21
11780.29335995814
 31
0.0
  0
LINE
  5
2AA
330
6C
100
AcDbEntity
  8
Visible (ISO)
100
AcDbLine
 10
32156.27136869952
 20
11780.29335995814
 30
0.0
 11
32156.27136869952
 21
11772.29335995814
 31
0.0
  0
LINE
  5
2AB
330
6C
100
AcDbEntity
  8
Visible (ISO)
100
AcDbLine
 10
32148.27136869952
 20
11780.29335995814
 30
0.0
 11
32156.27136869952
 21
11780.29335995814
 31
0.0
  0
LINE
  5
2AC
330
6C
100
AcDbEntity
  8
Visible (ISO)
100
AcDbLine
 10
32156.27136869952
 20
12204.29335995814
 30
0.0
 11
32148.27136869952
 21
12204.29335995814
 31
0.0
  0
LINE
  5
2AD
330
6C
100
AcDbEntity
  8
Visible (ISO)
100
AcDbLine
 10
32156.27136869952
 20
12212.29335995814
 30
0.0
 11
32156.27136869952
 21
12204.29335995814
 31
0.0
  0
LINE
  5
2AE
330
6C
100
AcDbEntity
  8
Visible (ISO)
100
AcDbLine
 10
32148.27136869952
 20
12204.29335995814
 30
0.0
 11
32156.27136869952
 21
12212.29335995814
 31
0.0
  0
LINE
  5
2AF
330
6C
100
AcDbEntity
  8
Visible (ISO)
100
AcDbLine
 10
33140.27136869951
 20
11780.29335995814
 30
0.0
 11
33148.27136869952
 21
11780.29335995814
 31
0.0
  0
LINE
  5
2B0
330
6C
100
AcDbEntity
  8
Visible (ISO)
100
AcDbLine
 10
33140.27136869951
 20
11772.29335995814
 30
0.0
 11
33140.27136869951
 21
11780.29335995814
 31
0.0
  0
LINE
  5
2B1
330
6C
100
AcDbEntity
  8
Visible (ISO)
100
AcDbLine
 10
33148.27136869952
 20
11780.29335995814
 30
0.0
 11
33140.27136869951
 21
11772.29335995814
 31
0.0
  0
LINE
  5
2B2
330
6C
100
AcDbEntity
  8
Visible (ISO)
100
AcDbLine
 10
33140.27136869951
 20
11780.29335995814
 30
0.0
 11
32373.27136869954
 21
11780.29335995814
 31
0.0
  0
LINE
  5
2B3
330
6C
100
AcDbEntity
  8
Visible (ISO)
100
AcDbLine
 10
32273.27136869954
 20
11780.29335995814
 30
0.0
 11
32156.27136869952
 21
11780.29335995814
 31
0.0
  0
LINE
  5
2B4
330
6C
100
AcDbEntity
  8
Visible (ISO)
100
AcDbLine
 10
32156.27136869952
 20
11772.29335995814
 30
0.0
 11
32273.27136869954
 21
11772.29335995814
 31
0.0
  0
LINE
  5
2B5
330
6C
100
AcDbEntity
  8
Visible (ISO)
100
AcDbLine
 10
32373.27136869954
 20
11772.29335995814
 30
0.0
 11
33140.27136869951
 21
11772.29335995814
 31
0.0
  0
LINE
  5
2B6
330
6C
100
AcDbEntity
  8
Visible (ISO)
100
AcDbLine
 10
33140.27136869951
 20
12212.29335995814
 30
0.0
 11
33148.27136869952
 21
12204.29335995814
 31
0.0
  0
LINE
  5
2B7
330
6C
100
AcDbEntity
  8
Visible (ISO)
100
AcDbLine
 10
33140.27136869951
 20
12204.29335995814
 30
0.0
 11
33140.27136869951
 21
12212.29335995814
 31
0.0
  0
LINE
  5
2B8
330
6C
100
AcDbEntity
  8
Visible (ISO)
100
AcDbLine
 10
33148.27136869952
 20
12204.29335995814
 30
0.0
 11
33140.27136869951
 21
12204.29335995814
 31
0.0
  0
LINE
  5
2B9
330
6C
100
AcDbEntity
  8
Visible (ISO)
100
AcDbLine
 10
33140.27136869951
 20
12212.29335995814
 30
0.0
 11
32373.27136869954
 21
12212.29335995814
 31
0.0
  0
LINE
  5
2BA
330
6C
100
AcDbEntity
  8
Visible (ISO)
100
AcDbLine
 10
32273.27136869954
 20
12212.29335995814
 30
0.0
 11
32156.27136869952
 21
12212.29335995814
 31
0.0
  0
LINE
  5
2BB
330
6C
100
AcDbEntity
  8
Visible (ISO)
100
AcDbLine
 10
32156.27136869952
 20
12204.29335995814
 30
0.0
 11
32273.27136869954
 21
12204.29335995814
 31
0.0
  0
LINE
  5
2BC
330
6C
100
AcDbEntity
  8
Visible (ISO)
100
AcDbLine
 10
32373.27136869954
 20
12204.29335995814
 30
0.0
 11
33140.27136869951
 21
12204.29335995814
 31
0.0
  0
LINE
  5
2BD
330
6C
100
AcDbEntity
  8
Visible (ISO)
100
AcDbLine
 10
33140.27136869951
 20
12204.29335995814
 30
0.0
 11
33140.27136869951
 21
11780.29335995814
 31
0.0
  0
LINE
  5
2BE
330
6C
100
AcDbEntity
  8
Visible (ISO)
100
AcDbLine
 10
33148.27136869952
 20
11780.29335995814
 30
0.0
 11
33148.27136869952
 21
12204.29335995814
 31
0.0
  0
LINE
  5
2BF
330
6C
100
AcDbEntity
  8
Visible (ISO)
100
AcDbLine
 10
32156.27136869952
 20
11780.29335995814
 30
0.0
 11
32156.27136869952
 21
12204.29335995814
 31
0.0
  0
LINE
  5
2C0
330
6C
100
AcDbEntity
  8
Visible (ISO)
100
AcDbLine
 10
32148.27136869952
 20
12204.29335995814
 30
0.0
 11
32148.27136869952
 21
11780.29335995814
 31
0.0
  0
LINE
  5
2C1
330
6C
100
AcDbEntity
  8
Visible (ISO)
100
AcDbLine
 10
33156.27136869952
 20
12212.29335995814
 30
0.0
 11
33148.27136869952
 21
12220.29335995814
 31
0.0
  0
LINE
  5
2C2
330
6C
100
AcDbEntity
  8
Visible (ISO)
100
AcDbLine
 10
33156.27136869952
 20
12220.29335995814
 30
0.0
 11
33156.27136869952
 21
12212.29335995814
 31
0.0
  0
LINE
  5
2C3
330
6C
100
AcDbEntity
  8
Visible (ISO)
100
AcDbLine
 10
33148.27136869952
 20
12220.29335995814
 30
0.0
 11
33156.27136869952
 21
12220.29335995814
 31
0.0
  0
LINE
  5
2C4
330
6C
100
AcDbEntity
  8
Visible (ISO)
100
AcDbLine
 10
33156.27136869952
 20
12644.29335995814
 30
0.0
 11
33148.27136869952
 21
12644.29335995814
 31
0.0
  0
LINE
  5
2C5
330
6C
100
AcDbEntity
  8
Visible (ISO)
100
AcDbLine
 10
33156.27136869952
 20
12652.29335995814
 30
0.0
 11
33156.27136869952
 21
12644.29335995814
 31
0.0
  0
LINE
  5
2C6
330
6C
100
AcDbEntity
  8
Visible (ISO)
100
AcDbLine
 10
33148.27136869952
 20
12644.29335995814
 30
0.0
 11
33156.27136869952
 21
12652.29335995814
 31
0.0
  0
LINE
  5
2C7
330
6C
100
AcDbEntity
  8
Visible (ISO)
100
AcDbLine
 10
34140.27136869951
 20
12220.29335995814
 30
0.0
 11
34148.27136869952
 21
12220.29335995814
 31
0.0
  0
LINE
  5
2C8
330
6C
100
AcDbEntity
  8
Visible (ISO)
100
AcDbLine
 10
34140.27136869951
 20
12212.29335995814
 30
0.0
 11
34140.27136869951
 21
12220.29335995814
 31
0.0
  0
LINE
  5
2C9
330
6C
100
AcDbEntity
  8
Visible (ISO)
100
AcDbLine
 10
34148.27136869952
 20
12220.29335995814
 30
0.0
 11
34140.27136869951
 21
12212.29335995814
 31
0.0
  0
LINE
  5
2CA
330
6C
100
AcDbEntity
  8
Visible (ISO)
100
AcDbLine
 10
34140.27136869951
 20
12220.29335995814
 30
0.0
 11
34073.2713686995
 21
12220.29335995814
 31
0.0
  0
LINE
  5
2CB
330
6C
100
AcDbEntity
  8
Visible (ISO)
100
AcDbLine
 10
33973.27136869951
 20
12220.29335995814
 30
0.0
 11
33156.27136869952
 21
12220.29335995814
 31
0.0
  0
LINE
  5
2CC
330
6C
100
AcDbEntity
  8
Visible (ISO)
100
AcDbLine
 10
33156.27136869952
 20
12212.29335995814
 30
0.0
 11
33973.27136869951
 21
12212.29335995814
 31
0.0
  0
LINE
  5
2CD
330
6C
100
AcDbEntity
  8
Visible (ISO)
100
AcDbLine
 10
34073.2713686995
 20
12212.29335995814
 30
0.0
 11
34140.27136869951
 21
12212.29335995814
 31
0.0
  0
LINE
  5
2CE
330
6C
100
AcDbEntity
  8
Visible (ISO)
100
AcDbLine
 10
34140.27136869951
 20
12652.29335995814
 30
0.0
 11
34148.27136869952
 21
12644.29335995814
 31
0.0
  0
LINE
  5
2CF
330
6C
100
AcDbEntity
  8
Visible (ISO)
100
AcDbLine
 10
34140.27136869951
 20
12644.29335995814
 30
0.0
 11
34140.27136869951
 21
12652.29335995814
 31
0.0
  0
LINE
  5
2D0
330
6C
100
AcDbEntity
  8
Visible (ISO)
100
AcDbLine
 10
34148.27136869952
 20
12644.29335995814
 30
0.0
 11
34140.27136869951
 21
12644.29335995814
 31
0.0
  0
LINE
  5
2D1
330
6C
100
AcDbEntity
  8
Visible (ISO)
100
AcDbLine
 10
34140.27136869951
 20
12652.29335995814
 30
0.0
 11
34073.2713686995
 21
12652.29335995814
 31
0.0
  0
LINE
  5
2D2
330
6C
100
AcDbEntity
  8
Visible (ISO)
100
AcDbLine
 10
33973.27136869951
 20
12652.29335995814
 30
0.0
 11
33156.27136869952
 21
12652.29335995814
 31
0.0
  0
LINE
  5
2D3
330
6C
100
AcDbEntity
  8
Visible (ISO)
100
AcDbLine
 10
33156.27136869952
 20
12644.29335995814
 30
0.0
 11
33973.27136869951
 21
12644.29335995814
 31
0.0
  0
LINE
  5
2D4
330
6C
100
AcDbEntity
  8
Visible (ISO)
100
AcDbLine
 10
34073.2713686995
 20
12644.29335995814
 30
0.0
 11
34140.27136869951
 21
12644.29335995814
 31
0.0
  0
LINE
  5
2D5
330
6C
100
AcDbEntity
  8
Visible (ISO)
100
AcDbLine
 10
34140.27136869951
 20
12644.29335995814
 30
0.0
 11
34140.27136869951
 21
12220.29335995814
 31
0.0
  0
LINE
  5
2D6
330
6C
100
AcDbEntity
  8
Visible (ISO)
100
AcDbLine
 10
34148.27136869952
 20
12220.29335995814
 30
0.0
 11
34148.27136869952
 21
12644.29335995814
 31
0.0
  0
LINE
  5
2D7
330
6C
100
AcDbEntity
  8
Visible (ISO)
100
AcDbLine
 10
33156.27136869952
 20
12220.29335995814
 30
0.0
 11
33156.27136869952
 21
12644.29335995814
 31
0.0
  0
LINE
  5
2D8
330
6C
100
AcDbEntity
  8
Visible (ISO)
100
AcDbLine
 10
33148.27136869952
 20
12644.29335995814
 30
0.0
 11
33148.27136869952
 21
12220.29335995814
 31
0.0
  0
LINE
  5
2D9
330
6C
100
AcDbEntity
  8
Visible (ISO)
100
AcDbLine
 10
32156.27136869952
 20
12212.29335995814
 30
0.0
 11
32148.27136869952
 21
12220.29335995814
 31
0.0
  0
LINE
  5
2DA
330
6C
100
AcDbEntity
  8
Visible (ISO)
100
AcDbLine
 10
32156.27136869952
 20
12220.29335995814
 30
0.0
 11
32156.27136869952
 21
12212.29335995814
 31
0.0
  0
LINE
  5
2DB
330
6C
100
AcDbEntity
  8
Visible (ISO)
100
AcDbLine
 10
32148.27136869952
 20
12220.29335995814
 30
0.0
 11
32156.27136869952
 21
12220.29335995814
 31
0.0
  0
LINE
  5
2DC
330
6C
100
AcDbEntity
  8
Visible (ISO)
100
AcDbLine
 10
32156.27136869952
 20
12644.29335995814
 30
0.0
 11
32148.27136869952
 21
12644.29335995814
 31
0.0
  0
LINE
  5
2DD
330
6C
100
AcDbEntity
  8
Visible (ISO)
100
AcDbLine
 10
32156.27136869952
 20
12652.29335995814
 30
0.0
 11
32156.27136869952
 21
12644.29335995814
 31
0.0
  0
LINE
  5
2DE
330
6C
100
AcDbEntity
  8
Visible (ISO)
100
AcDbLine
 10
32148.27136869952
 20
12644.29335995814
 30
0.0
 11
32156.27136869952
 21
12652.29335995814
 31
0.0
  0
LINE
  5
2DF
330
6C
100
AcDbEntity
  8
Visible (ISO)
100
AcDbLine
 10
33140.27136869951
 20
12220.29335995814
 30
0.0
 11
33148.27136869952
 21
12220.29335995814
 31
0.0
  0
LINE
  5
2E0
330
6C
100
AcDbEntity
  8
Visible (ISO)
100
AcDbLine
 10
33140.27136869951
 20
12212.29335995814
 30
0.0
 11
33140.27136869951
 21
12220.29335995814
 31
0.0
  0
LINE
  5
2E1
330
6C
100
AcDbEntity
  8
Visible (ISO)
100
AcDbLine
 10
33148.27136869952
 20
12220.29335995814
 30
0.0
 11
33140.27136869951
 21
12212.29335995814
 31
0.0
  0
LINE
  5
2E2
330
6C
100
AcDbEntity
  8
Visible (ISO)
100
AcDbLine
 10
33140.27136869951
 20
12220.29335995814
 30
0.0
 11
32373.27136869954
 21
12220.29335995814
 31
0.0
  0
LINE
  5
2E3
330
6C
100
AcDbEntity
  8
Visible (ISO)
100
AcDbLine
 10
32273.27136869954
 20
12220.29335995814
 30
0.0
 11
32156.27136869952
 21
12220.29335995814
 31
0.0
  0
LINE
  5
2E4
330
6C
100
AcDbEntity
  8
Visible (ISO)
100
AcDbLine
 10
32156.27136869952
 20
12212.29335995814
 30
0.0
 11
32273.27136869954
 21
12212.29335995814
 31
0.0
  0
LINE
  5
2E5
330
6C
100
AcDbEntity
  8
Visible (ISO)
100
AcDbLine
 10
32373.27136869954
 20
12212.29335995814
 30
0.0
 11
33140.27136869951
 21
12212.29335995814
 31
0.0
  0
LINE
  5
2E6
330
6C
100
AcDbEntity
  8
Visible (ISO)
100
AcDbLine
 10
33140.27136869951
 20
12652.29335995814
 30
0.0
 11
33148.27136869952
 21
12644.29335995814
 31
0.0
  0
LINE
  5
2E7
330
6C
100
AcDbEntity
  8
Visible (ISO)
100
AcDbLine
 10
33140.27136869951
 20
12644.29335995814
 30
0.0
 11
33140.27136869951
 21
12652.29335995814
 31
0.0
  0
LINE
  5
2E8
330
6C
100
AcDbEntity
  8
Visible (ISO)
100
AcDbLine
 10
33148.27136869952
 20
12644.29335995814
 30
0.0
 11
33140.27136869951
 21
12644.29335995814
 31
0.0
  0
LINE
  5
2E9
330
6C
100
AcDbEntity
  8
Visible (ISO)
100
AcDbLine
 10
33140.27136869951
 20
12652.29335995814
 30
0.0
 11
32373.27136869954
 21
12652.29335995814
 31
0.0
  0
LINE
  5
2EA
330
6C
100
AcDbEntity
  8
Visible (ISO)
100
AcDbLine
 10
32273.27136869954
 20
12652.29335995814
 30
0.0
 11
32156.27136869952
 21
12652.29335995814
 31
0.0
  0
LINE
  5
2EB
330
6C
100
AcDbEntity
  8
Visible (ISO)
100
AcDbLine
 10
32156.27136869952
 20
12644.29335995814
 30
0.0
 11
32273.27136869954
 21
12644.29335995814
 31
0.0
  0
LINE
  5
2EC
330
6C
100
AcDbEntity
  8
Visible (ISO)
100
AcDbLine
 10
32373.27136869954
 20
12644.29335995814
 30
0.0
 11
33140.27136869951
 21
12644.29335995814
 31
0.0
  0
LINE
  5
2ED
330
6C
100
AcDbEntity
  8
Visible (ISO)
100
AcDbLine
 10
33140.27136869951
 20
12644.29335995814
 30
0.0
 11
33140.27136869951
 21
12220.29335995814
 31
0.0
  0
LINE
  5
2EE
330
6C
100
AcDbEntity
  8
Visible (ISO)
100
AcDbLine
 10
33148.27136869952
 20
12220.29335995814
 30
0.0
 11
33148.27136869952
 21
12644.29335995814
 31
0.0
  0
LINE
  5
2EF
330
6C
100
AcDbEntity
  8
Visible (ISO)
100
AcDbLine
 10
32156.27136869952
 20
12220.29335995814
 30
0.0
 11
32156.27136869952
 21
12644.29335995814
 31
0.0
  0
LINE
  5
2F0
330
6C
100
AcDbEntity
  8
Visible (ISO)
100
AcDbLine
 10
32148.27136869952
 20
12644.29335995814
 30
0.0
 11
32148.27136869952
 21
12220.29335995814
 31
0.0
  0
LINE
  5
2F1
330
6C
100
AcDbEntity
  8
Visible (ISO)
100
AcDbLine
 10
33156.27136869952
 20
12652.29335995814
 30
0.0
 11
33148.27136869952
 21
12660.29335995814
 31
0.0
  0
LINE
  5
2F2
330
6C
100
AcDbEntity
  8
Visible (ISO)
100
AcDbLine
 10
33156.27136869952
 20
12660.29335995814
 30
0.0
 11
33156.27136869952
 21
12652.29335995814
 31
0.0
  0
LINE
  5
2F3
330
6C
100
AcDbEntity
  8
Visible (ISO)
100
AcDbLine
 10
33148.27136869952
 20
12660.29335995814
 30
0.0
 11
33156.27136869952
 21
12660.29335995814
 31
0.0
  0
LINE
  5
2F4
330
6C
100
AcDbEntity
  8
Visible (ISO)
100
AcDbLine
 10
33156.27136869952
 20
13084.29335995814
 30
0.0
 11
33148.27136869952
 21
13084.29335995814
 31
0.0
  0
LINE
  5
2F5
330
6C
100
AcDbEntity
  8
Visible (ISO)
100
AcDbLine
 10
33156.27136869952
 20
13092.29335995814
 30
0.0
 11
33156.27136869952
 21
13084.29335995814
 31
0.0
  0
LINE
  5
2F6
330
6C
100
AcDbEntity
  8
Visible (ISO)
100
AcDbLine
 10
33148.27136869952
 20
13084.29335995814
 30
0.0
 11
33156.27136869952
 21
13092.29335995814
 31
0.0
  0
LINE
  5
2F7
330
6C
100
AcDbEntity
  8
Visible (ISO)
100
AcDbLine
 10
34140.27136869951
 20
12660.29335995814
 30
0.0
 11
34148.27136869952
 21
12660.29335995814
 31
0.0
  0
LINE
  5
2F8
330
6C
100
AcDbEntity
  8
Visible (ISO)
100
AcDbLine
 10
34140.27136869951
 20
12652.29335995814
 30
0.0
 11
34140.27136869951
 21
12660.29335995814
 31
0.0
  0
LINE
  5
2F9
330
6C
100
AcDbEntity
  8
Visible (ISO)
100
AcDbLine
 10
34148.27136869952
 20
12660.29335995814
 30
0.0
 11
34140.27136869951
 21
12652.29335995814
 31
0.0
  0
LINE
  5
2FA
330
6C
100
AcDbEntity
  8
Visible (ISO)
100
AcDbLine
 10
34140.27136869951
 20
12660.29335995814
 30
0.0
 11
34073.2713686995
 21
12660.29335995814
 31
0.0
  0
LINE
  5
2FB
330
6C
100
AcDbEntity
  8
Visible (ISO)
100
AcDbLine
 10
33973.27136869951
 20
12660.29335995814
 30
0.0
 11
33156.27136869952
 21
12660.29335995814
 31
0.0
  0
LINE
  5
2FC
330
6C
100
AcDbEntity
  8
Visible (ISO)
100
AcDbLine
 10
33156.27136869952
 20
12652.29335995814
 30
0.0
 11
33973.27136869951
 21
12652.29335995814
 31
0.0
  0
LINE
  5
2FD
330
6C
100
AcDbEntity
  8
Visible (ISO)
100
AcDbLine
 10
34073.2713686995
 20
12652.29335995814
 30
0.0
 11
34140.27136869951
 21
12652.29335995814
 31
0.0
  0
LINE
  5
2FE
330
6C
100
AcDbEntity
  8
Visible (ISO)
100
AcDbLine
 10
34140.27136869951
 20
13092.29335995814
 30
0.0
 11
34148.27136869952
 21
13084.29335995814
 31
0.0
  0
LINE
  5
2FF
330
6C
100
AcDbEntity
  8
Visible (ISO)
100
AcDbLine
 10
34140.27136869951
 20
13084.29335995814
 30
0.0
 11
34140.27136869951
 21
13092.29335995814
 31
0.0
  0
LINE
  5
300
330
6C
100
AcDbEntity
  8
Visible (ISO)
100
AcDbLine
 10
34148.27136869952
 20
13084.29335995814
 30
0.0
 11
34140.27136869951
 21
13084.29335995814
 31
0.0
  0
LINE
  5
301
330
6C
100
AcDbEntity
  8
Visible (ISO)
100
AcDbLine
 10
34140.27136869951
 20
13092.29335995814
 30
0.0
 11
34073.2713686995
 21
13092.29335995814
 31
0.0
  0
LINE
  5
302
330
6C
100
AcDbEntity
  8
Visible (ISO)
100
AcDbLine
 10
33973.27136869951
 20
13092.29335995814
 30
0.0
 11
33156.27136869952
 21
13092.29335995814
 31
0.0
  0
LINE
  5
303
330
6C
100
AcDbEntity
  8
Visible (ISO)
100
AcDbLine
 10
33156.27136869952
 20
13084.29335995814
 30
0.0
 11
33973.27136869951
 21
13084.29335995814
 31
0.0
  0
LINE
  5
304
330
6C
100
AcDbEntity
  8
Visible (ISO)
100
AcDbLine
 10
34073.2713686995
 20
13084.29335995814
 30
0.0
 11
34140.27136869951
 21
13084.29335995814
 31
0.0
  0
LINE
  5
305
330
6C
100
AcDbEntity
  8
Visible (ISO)
100
AcDbLine
 10
34140.27136869951
 20
13084.29335995814
 30
0.0
 11
34140.27136869951
 21
12660.29335995814
 31
0.0
  0
LINE
  5
306
330
6C
100
AcDbEntity
  8
Visible (ISO)
100
AcDbLine
 10
34148.27136869952
 20
12660.29335995814
 30
0.0
 11
34148.27136869952
 21
13084.29335995814
 31
0.0
  0
LINE
  5
307
330
6C
100
AcDbEntity
  8
Visible (ISO)
100
AcDbLine
 10
33156.27136869952
 20
12660.29335995814
 30
0.0
 11
33156.27136869952
 21
13084.29335995814
 31
0.0
  0
LINE
  5
308
330
6C
100
AcDbEntity
  8
Visible (ISO)
100
AcDbLine
 10
33148.27136869952
 20
13084.29335995814
 30
0.0
 11
33148.27136869952
 21
12660.29335995814
 31
0.0
  0
LINE
  5
309
330
6C
100
AcDbEntity
  8
Visible (ISO)
100
AcDbLine
 10
32156.27136869952
 20
12652.29335995814
 30
0.0
 11
32148.27136869952
 21
12660.29335995814
 31
0.0
  0
LINE
  5
30A
330
6C
100
AcDbEntity
  8
Visible (ISO)
100
AcDbLine
 10
32156.27136869952
 20
12660.29335995814
 30
0.0
 11
32156.27136869952
 21
12652.29335995814
 31
0.0
  0
LINE
  5
30B
330
6C
100
AcDbEntity
  8
Visible (ISO)
100
AcDbLine
 10
32148.27136869952
 20
12660.29335995814
 30
0.0
 11
32156.27136869952
 21
12660.29335995814
 31
0.0
  0
LINE
  5
30C
330
6C
100
AcDbEntity
  8
Visible (ISO)
100
AcDbLine
 10
32156.27136869952
 20
13084.29335995814
 30
0.0
 11
32148.27136869952
 21
13084.29335995814
 31
0.0
  0
LINE
  5
30D
330
6C
100
AcDbEntity
  8
Visible (ISO)
100
AcDbLine
 10
32156.27136869952
 20
13092.29335995814
 30
0.0
 11
32156.27136869952
 21
13084.29335995814
 31
0.0
  0
LINE
  5
30E
330
6C
100
AcDbEntity
  8
Visible (ISO)
100
AcDbLine
 10
32148.27136869952
 20
13084.29335995814
 30
0.0
 11
32156.27136869952
 21
13092.29335995814
 31
0.0
  0
LINE
  5
30F
330
6C
100
AcDbEntity
  8
Visible (ISO)
100
AcDbLine
 10
33140.27136869951
 20
12660.29335995814
 30
0.0
 11
33148.27136869952
 21
12660.29335995814
 31
0.0
  0
LINE
  5
310
330
6C
100
AcDbEntity
  8
Visible (ISO)
100
AcDbLine
 10
33140.27136869951
 20
12652.29335995814
 30
0.0
 11
33140.27136869951
 21
12660.29335995814
 31
0.0
  0
LINE
  5
311
330
6C
100
AcDbEntity
  8
Visible (ISO)
100
AcDbLine
 10
33148.27136869952
 20
12660.29335995814
 30
0.0
 11
33140.27136869951
 21
12652.29335995814
 31
0.0
  0
LINE
  5
312
330
6C
100
AcDbEntity
  8
Visible (ISO)
100
AcDbLine
 10
33140.27136869951
 20
12660.29335995814
 30
0.0
 11
32373.27136869954
 21
12660.29335995814
 31
0.0
  0
LINE
  5
313
330
6C
100
AcDbEntity
  8
Visible (ISO)
100
AcDbLine
 10
32273.27136869954
 20
12660.29335995814
 30
0.0
 11
32156.27136869952
 21
12660.29335995814
 31
0.0
  0
LINE
  5
314
330
6C
100
AcDbEntity
  8
Visible (ISO)
100
AcDbLine
 10
32156.27136869952
 20
12652.29335995814
 30
0.0
 11
32273.27136869954
 21
12652.29335995814
 31
0.0
  0
LINE
  5
315
330
6C
100
AcDbEntity
  8
Visible (ISO)
100
AcDbLine
 10
32373.27136869954
 20
12652.29335995814
 30
0.0
 11
33140.27136869951
 21
12652.29335995814
 31
0.0
  0
LINE
  5
316
330
6C
100
AcDbEntity
  8
Visible (ISO)
100
AcDbLine
 10
33140.27136869951
 20
13092.29335995814
 30
0.0
 11
33148.27136869952
 21
13084.29335995814
 31
0.0
  0
LINE
  5
317
330
6C
100
AcDbEntity
  8
Visible (ISO)
100
AcDbLine
 10
33140.27136869951
 20
13084.29335995814
 30
0.0
 11
33140.27136869951
 21
13092.29335995814
 31
0.0
  0
LINE
  5
318
330
6C
100
AcDbEntity
  8
Visible (ISO)
100
AcDbLine
 10
33148.27136869952
 20
13084.29335995814
 30
0.0
 11
33140.27136869951
 21
13084.29335995814
 31
0.0
  0
LINE
  5
319
330
6C
100
AcDbEntity
  8
Visible (ISO)
100
AcDbLine
 10
33140.27136869951
 20
13092.29335995814
 30
0.0
 11
32373.27136869954
 21
13092.29335995814
 31
0.0
  0
LINE
  5
31A
330
6C
100
AcDbEntity
  8
Visible (ISO)
100
AcDbLine
 10
32273.27136869954
 20
13092.29335995814
 30
0.0
 11
32156.27136869952
 21
13092.29335995814
 31
0.0
  0
LINE
  5
31B
330
6C
100
AcDbEntity
  8
Visible (ISO)
100
AcDbLine
 10
32156.27136869952
 20
13084.29335995814
 30
0.0
 11
32273.27136869954
 21
13084.29335995814
 31
0.0
  0
LINE
  5
31C
330
6C
100
AcDbEntity
  8
Visible (ISO)
100
AcDbLine
 10
32373.27136869954
 20
13084.29335995814
 30
0.0
 11
33140.27136869951
 21
13084.29335995814
 31
0.0
  0
LINE
  5
31D
330
6C
100
AcDbEntity
  8
Visible (ISO)
100
AcDbLine
 10
33140.27136869951
 20
13084.29335995814
 30
0.0
 11
33140.27136869951
 21
12660.29335995814
 31
0.0
  0
LINE
  5
31E
330
6C
100
AcDbEntity
  8
Visible (ISO)
100
AcDbLine
 10
33148.27136869952
 20
12660.29335995814
 30
0.0
 11
33148.27136869952
 21
13084.29335995814
 31
0.0
  0
LINE
  5
31F
330
6C
100
AcDbEntity
  8
Visible (ISO)
100
AcDbLine
 10
32156.27136869952
 20
12660.29335995814
 30
0.0
 11
32156.27136869952
 21
13084.29335995814
 31
0.0
  0
LINE
  5
320
330
6C
100
AcDbEntity
  8
Visible (ISO)
100
AcDbLine
 10
32148.27136869952
 20
13084.29335995814
 30
0.0
 11
32148.27136869952
 21
12660.29335995814
 31
0.0
  0
LINE
  5
321
330
6C
100
AcDbEntity
  8
Visible (ISO)
100
AcDbLine
 10
33156.27136869952
 20
13092.29335995814
 30
0.0
 11
33148.27136869952
 21
13100.29335995814
 31
0.0
  0
LINE
  5
322
330
6C
100
AcDbEntity
  8
Visible (ISO)
100
AcDbLine
 10
33156.27136869952
 20
13100.29335995814
 30
0.0
 11
33156.27136869952
 21
13092.29335995814
 31
0.0
  0
LINE
  5
323
330
6C
100
AcDbEntity
  8
Visible (ISO)
100
AcDbLine
 10
33148.27136869952
 20
13100.29335995814
 30
0.0
 11
33156.27136869952
 21
13100.29335995814
 31
0.0
  0
LINE
  5
324
330
6C
100
AcDbEntity
  8
Visible (ISO)
100
AcDbLine
 10
33156.27136869952
 20
13524.29335995814
 30
0.0
 11
33148.27136869952
 21
13524.29335995814
 31
0.0
  0
LINE
  5
325
330
6C
100
AcDbEntity
  8
Visible (ISO)
100
AcDbLine
 10
33156.27136869952
 20
13532.29335995814
 30
0.0
 11
33156.27136869952
 21
13524.29335995814
 31
0.0
  0
LINE
  5
326
330
6C
100
AcDbEntity
  8
Visible (ISO)
100
AcDbLine
 10
33148.27136869952
 20
13524.29335995814
 30
0.0
 11
33156.27136869952
 21
13532.29335995814
 31
0.0
  0
LINE
  5
327
330
6C
100
AcDbEntity
  8
Visible (ISO)
100
AcDbLine
 10
34140.27136869951
 20
13100.29335995814
 30
0.0
 11
34148.27136869952
 21
13100.29335995814
 31
0.0
  0
LINE
  5
328
330
6C
100
AcDbEntity
  8
Visible (ISO)
100
AcDbLine
 10
34140.27136869951
 20
13092.29335995814
 30
0.0
 11
34140.27136869951
 21
13100.29335995814
 31
0.0
  0
LINE
  5
329
330
6C
100
AcDbEntity
  8
Visible (ISO)
100
AcDbLine
 10
34148.27136869952
 20
13100.29335995814
 30
0.0
 11
34140.27136869951
 21
13092.29335995814
 31
0.0
  0
LINE
  5
32A
330
6C
100
AcDbEntity
  8
Visible (ISO)
100
AcDbLine
 10
34140.27136869951
 20
13100.29335995814
 30
0.0
 11
34073.2713686995
 21
13100.29335995814
 31
0.0
  0
LINE
  5
32B
330
6C
100
AcDbEntity
  8
Visible (ISO)
100
AcDbLine
 10
33973.27136869951
 20
13100.29335995814
 30
0.0
 11
33156.27136869952
 21
13100.29335995814
 31
0.0
  0
LINE
  5
32C
330
6C
100
AcDbEntity
  8
Visible (ISO)
100
AcDbLine
 10
33156.27136869952
 20
13092.29335995814
 30
0.0
 11
33973.27136869951
 21
13092.29335995814
 31
0.0
  0
LINE
  5
32D
330
6C
100
AcDbEntity
  8
Visible (ISO)
100
AcDbLine
 10
34073.2713686995
 20
13092.29335995814
 30
0.0
 11
34140.27136869951
 21
13092.29335995814
 31
0.0
  0
LINE
  5
32E
330
6C
100
AcDbEntity
  8
Visible (ISO)
100
AcDbLine
 10
34140.27136869951
 20
13532.29335995814
 30
0.0
 11
34148.27136869952
 21
13524.29335995814
 31
0.0
  0
LINE
  5
32F
330
6C
100
AcDbEntity
  8
Visible (ISO)
100
AcDbLine
 10
34140.27136869951
 20
13524.29335995814
 30
0.0
 11
34140.27136869951
 21
13532.29335995814
 31
0.0
  0
LINE
  5
330
330
6C
100
AcDbEntity
  8
Visible (ISO)
100
AcDbLine
 10
34148.27136869952
 20
13524.29335995814
 30
0.0
 11
34140.27136869951
 21
13524.29335995814
 31
0.0
  0
LINE
  5
331
330
6C
100
AcDbEntity
  8
Visible (ISO)
100
AcDbLine
 10
34140.27136869951
 20
13532.29335995814
 30
0.0
 11
34073.2713686995
 21
13532.29335995814
 31
0.0
  0
LINE
  5
332
330
6C
100
AcDbEntity
  8
Visible (ISO)
100
AcDbLine
 10
33968.2713686995
 20
13532.29335995814
 30
0.0
 11
33156.27136869952
 21
13532.29335995814
 31
0.0
  0
LINE
  5
333
330
6C
100
AcDbEntity
  8
Visible (ISO)
100
AcDbLine
 10
33156.27136869952
 20
13524.29335995814
 30
0.0
 11
33968.2713686995
 21
13524.29335995814
 31
0.0
  0
LINE
  5
334
330
6C
100
AcDbEntity
  8
Visible (ISO)
100
AcDbLine
 10
34073.2713686995
 20
13524.29335995814
 30
0.0
 11
34140.27136869951
 21
13524.29335995814
 31
0.0
  0
LINE
  5
335
330
6C
100
AcDbEntity
  8
Visible (ISO)
100
AcDbLine
 10
34140.27136869951
 20
13524.29335995814
 30
0.0
 11
34140.27136869951
 21
13100.29335995814
 31
0.0
  0
LINE
  5
336
330
6C
100
AcDbEntity
  8
Visible (ISO)
100
AcDbLine
 10
34148.27136869952
 20
13100.29335995814
 30
0.0
 11
34148.27136869952
 21
13524.29335995814
 31
0.0
  0
LINE
  5
337
330
6C
100
AcDbEntity
  8
Visible (ISO)
100
AcDbLine
 10
33156.27136869952
 20
13100.29335995814
 30
0.0
 11
33156.27136869952
 21
13524.29335995814
 31
0.0
  0
LINE
  5
338
330
6C
100
AcDbEntity
  8
Visible (ISO)
100
AcDbLine
 10
33148.27136869952
 20
13524.29335995814
 30
0.0
 11
33148.27136869952
 21
13100.29335995814
 31
0.0
  0
LINE
  5
339
330
6C
100
AcDbEntity
  8
Visible (ISO)
100
AcDbLine
 10
32156.27136869952
 20
13092.29335995814
 30
0.0
 11
32148.27136869952
 21
13100.29335995814
 31
0.0
  0
LINE
  5
33A
330
6C
100
AcDbEntity
  8
Visible (ISO)
100
AcDbLine
 10
32156.27136869952
 20
13100.29335995814
 30
0.0
 11
32156.27136869952
 21
13092.29335995814
 31
0.0
  0
LINE
  5
33B
330
6C
100
AcDbEntity
  8
Visible (ISO)
100
AcDbLine
 10
32148.27136869952
 20
13100.29335995814
 30
0.0
 11
32156.27136869952
 21
13100.29335995814
 31
0.0
  0
LINE
  5
33C
330
6C
100
AcDbEntity
  8
Visible (ISO)
100
AcDbLine
 10
32156.27136869952
 20
13524.29335995813
 30
0.0
 11
32148.27136869952
 21
13524.29335995814
 31
0.0
  0
LINE
  5
33D
330
6C
100
AcDbEntity
  8
Visible (ISO)
100
AcDbLine
 10
32156.27136869952
 20
13532.29335995814
 30
0.0
 11
32156.27136869952
 21
13524.29335995813
 31
0.0
  0
LINE
  5
33E
330
6C
100
AcDbEntity
  8
Visible (ISO)
100
AcDbLine
 10
32148.27136869952
 20
13524.29335995814
 30
0.0
 11
32156.27136869952
 21
13532.29335995814
 31
0.0
  0
LINE
  5
33F
330
6C
100
AcDbEntity
  8
Visible (ISO)
100
AcDbLine
 10
33140.27136869951
 20
13100.29335995814
 30
0.0
 11
33148.27136869952
 21
13100.29335995814
 31
0.0
  0
LINE
  5
340
330
6C
100
AcDbEntity
  8
Visible (ISO)
100
AcDbLine
 10
33140.27136869951
 20
13092.29335995814
 30
0.0
 11
33140.27136869951
 21
13100.29335995814
 31
0.0
  0
LINE
  5
341
330
6C
100
AcDbEntity
  8
Visible (ISO)
100
AcDbLine
 10
33148.27136869952
 20
13100.29335995814
 30
0.0
 11
33140.27136869951
 21
13092.29335995814
 31
0.0
  0
LINE
  5
342
330
6C
100
AcDbEntity
  8
Visible (ISO)
100
AcDbLine
 10
33140.27136869951
 20
13100.29335995814
 30
0.0
 11
32373.27136869954
 21
13100.29335995814
 31
0.0
  0
LINE
  5
343
330
6C
100
AcDbEntity
  8
Visible (ISO)
100
AcDbLine
 10
32273.27136869954
 20
13100.29335995814
 30
0.0
 11
32156.27136869952
 21
13100.29335995814
 31
0.0
  0
LINE
  5
344
330
6C
100
AcDbEntity
  8
Visible (ISO)
100
AcDbLine
 10
32156.27136869952
 20
13092.29335995814
 30
0.0
 11
32273.27136869954
 21
13092.29335995814
 31
0.0
  0
LINE
  5
345
330
6C
100
AcDbEntity
  8
Visible (ISO)
100
AcDbLine
 10
32373.27136869954
 20
13092.29335995814
 30
0.0
 11
33140.27136869951
 21
13092.29335995814
 31
0.0
  0
LINE
  5
346
330
6C
100
AcDbEntity
  8
Visible (ISO)
100
AcDbLine
 10
33140.27136869951
 20
13532.29335995814
 30
0.0
 11
33148.27136869952
 21
13524.29335995814
 31
0.0
  0
LINE
  5
347
330
6C
100
AcDbEntity
  8
Visible (ISO)
100
AcDbLine
 10
33140.27136869951
 20
13524.29335995813
 30
0.0
 11
33140.27136869951
 21
13532.29335995814
 31
0.0
  0
LINE
  5
348
330
6C
100
AcDbEntity
  8
Visible (ISO)
100
AcDbLine
 10
33148.27136869952
 20
13524.29335995814
 30
0.0
 11
33140.27136869951
 21
13524.29335995813
 31
0.0
  0
LINE
  5
349
330
6C
100
AcDbEntity
  8
Visible (ISO)
100
AcDbLine
 10
33140.27136869951
 20
13532.29335995814
 30
0.0
 11
32378.27136869951
 21
13532.29335995814
 31
0.0
  0
LINE
  5
34A
330
6C
100
AcDbEntity
  8
Visible (ISO)
100
AcDbLine
 10
32273.27136869954
 20
13532.29335995814
 30
0.0
 11
32156.27136869952
 21
13532.29335995814
 31
0.0
  0
LINE
  5
34B
330
6C
100
AcDbEntity
  8
Visible (ISO)
100
AcDbLine
 10
32156.27136869952
 20
13524.29335995813
 30
0.0
 11
32273.27136869954
 21
13524.29335995813
 31
0.0
  0
LINE
  5
34C
330
6C
100
AcDbEntity
  8
Visible (ISO)
100
AcDbLine
 10
32378.27136869951
 20
13524.29335995813
 30
0.0
 11
33140.27136869951
 21
13524.29335995813
 31
0.0
  0
LINE
  5
34D
330
6C
100
AcDbEntity
  8
Visible (ISO)
100
AcDbLine
 10
33140.27136869951
 20
13524.29335995813
 30
0.0
 11
33140.27136869951
 21
13100.29335995814
 31
0.0
  0
LINE
  5
34E
330
6C
100
AcDbEntity
  8
Visible (ISO)
100
AcDbLine
 10
33148.27136869952
 20
13100.29335995814
 30
0.0
 11
33148.27136869952
 21
13524.29335995814
 31
0.0
  0
LINE
  5
34F
330
6C
100
AcDbEntity
  8
Visible (ISO)
100
AcDbLine
 10
32156.27136869952
 20
13100.29335995814
 30
0.0
 11
32156.27136869952
 21
13403.29335995815
 31
0.0
  0
LINE
  5
350
330
6C
100
AcDbEntity
  8
Visible (ISO)
100
AcDbLine
 10
32156.27136869952
 20
13441.29335995814
 30
0.0
 11
32156.27136869952
 21
13524.29335995813
 31
0.0
  0
LINE
  5
351
330
6C
100
AcDbEntity
  8
Visible (ISO)
100
AcDbLine
 10
32148.27136869952
 20
13524.29335995814
 30
0.0
 11
32148.27136869952
 21
13441.29335995815
 31
0.0
  0
LINE
  5
352
330
6C
100
AcDbEntity
  8
Visible (ISO)
100
AcDbLine
 10
32148.27136869952
 20
13403.29335995815
 30
0.0
 11
32148.27136869952
 21
13100.29335995814
 31
0.0
  0
LINE
  5
353
330
6C
100
AcDbEntity
  8
Visible (ISO)
100
AcDbLine
 10
35898.27136869952
 20
11764.29335995821
 30
0.0
 11
35890.27136869952
 21
11764.29335995821
 31
0.0
  0
LINE
  5
354
330
6C
100
AcDbEntity
  8
Visible (ISO)
100
AcDbLine
 10
35890.27136869952
 20
11772.29335995821
 30
0.0
 11
35898.27136869952
 21
11764.29335995821
 31
0.0
  0
LINE
  5
355
330
6C
100
AcDbEntity
  8
Visible (ISO)
100
AcDbLine
 10
35890.27136869952
 20
11764.29335995821
 30
0.0
 11
35890.27136869952
 21
11772.29335995821
 31
0.0
  0
LINE
  5
356
330
6C
100
AcDbEntity
  8
Visible (ISO)
100
AcDbLine
 10
35656.27136869952
 20
11772.29335995821
 30
0.0
 11
35656.27136869952
 21
11764.29335995821
 31
0.0
  0
LINE
  5
357
330
6C
100
AcDbEntity
  8
Visible (ISO)
100
AcDbLine
 10
35648.27136869952
 20
11764.29335995821
 30
0.0
 11
35656.27136869952
 21
11772.29335995821
 31
0.0
  0
LINE
  5
358
330
6C
100
AcDbEntity
  8
Visible (ISO)
100
AcDbLine
 10
35656.27136869952
 20
11764.29335995821
 30
0.0
 11
35648.27136869952
 21
11764.29335995821
 31
0.0
  0
LINE
  5
359
330
6C
100
AcDbEntity
  8
Visible (ISO)
100
AcDbLine
 10
35648.27136869952
 20
11764.29335995821
 30
0.0
 11
35648.27136869952
 21
11582.29335995822
 31
0.0
  0
LINE
  5
35A
330
6C
100
AcDbEntity
  8
Visible (ISO)
100
AcDbLine
 10
35656.27136869952
 20
11582.29335995821
 30
0.0
 11
35656.27136869952
 21
11764.29335995821
 31
0.0
  0
LINE
  5
35B
330
6C
100
AcDbEntity
  8
Visible (ISO)
100
AcDbLine
 10
35890.27136869952
 20
11772.29335995821
 30
0.0
 11
35656.27136869952
 21
11772.29335995821
 31
0.0
  0
LINE
  5
35C
330
6C
100
AcDbEntity
  8
Visible (ISO)
100
AcDbLine
 10
35656.27136869952
 20
11764.29335995821
 30
0.0
 11
35890.27136869952
 21
11764.29335995821
 31
0.0
  0
LINE
  5
35D
330
6C
100
AcDbEntity
  8
Visible (ISO)
100
AcDbLine
 10
35898.27136869952
 20
11582.29335995822
 30
0.0
 11
35898.27136869952
 21
11764.29335995821
 31
0.0
  0
LINE
  5
35E
330
6C
100
AcDbEntity
  8
Visible (ISO)
100
AcDbLine
 10
35890.27136869952
 20
11764.29335995821
 30
0.0
 11
35890.27136869952
 21
11582.29335995821
 31
0.0
  0
LINE
  5
35F
330
6C
100
AcDbEntity
  8
Visible (ISO)
100
AcDbLine
 10
35890.27136869952
 20
11772.29335995821
 30
0.0
 11
35890.27136869952
 21
11780.29335995821
 31
0.0
  0
LINE
  5
360
330
6C
100
AcDbEntity
  8
Visible (ISO)
100
AcDbLine
 10
35898.27136869952
 20
11780.29335995821
 30
0.0
 11
35890.27136869952
 21
11772.29335995821
 31
0.0
  0
LINE
  5
361
330
6C
100
AcDbEntity
  8
Visible (ISO)
100
AcDbLine
 10
35890.27136869952
 20
11780.29335995821
 30
0.0
 11
35898.27136869952
 21
11780.29335995821
 31
0.0
  0
LINE
  5
362
330
6C
100
AcDbEntity
  8
Visible (ISO)
100
AcDbLine
 10
35898.27136869952
 20
12204.29335995821
 30
0.0
 11
35890.27136869952
 21
12204.29335995821
 31
0.0
  0
LINE
  5
363
330
6C
100
AcDbEntity
  8
Visible (ISO)
100
AcDbLine
 10
35890.27136869952
 20
12212.29335995821
 30
0.0
 11
35898.27136869952
 21
12204.29335995821
 31
0.0
  0
LINE
  5
364
330
6C
100
AcDbEntity
  8
Visible (ISO)
100
AcDbLine
 10
35890.27136869952
 20
12204.29335995821
 30
0.0
 11
35890.27136869952
 21
12212.29335995821
 31
0.0
  0
LINE
  5
365
330
6C
100
AcDbEntity
  8
Visible (ISO)
100
AcDbLine
 10
35648.27136869952
 20
11780.29335995821
 30
0.0
 11
35656.27136869952
 21
11780.29335995821
 31
0.0
  0
LINE
  5
366
330
6C
100
AcDbEntity
  8
Visible (ISO)
100
AcDbLine
 10
35656.27136869952
 20
11772.29335995821
 30
0.0
 11
35648.27136869952
 21
11780.29335995821
 31
0.0
  0
LINE
  5
367
330
6C
100
AcDbEntity
  8
Visible (ISO)
100
AcDbLine
 10
35656.27136869952
 20
11780.29335995821
 30
0.0
 11
35656.27136869952
 21
11772.29335995821
 31
0.0
  0
LINE
  5
368
330
6C
100
AcDbEntity
  8
Visible (ISO)
100
AcDbLine
 10
35656.27136869952
 20
12212.29335995821
 30
0.0
 11
35656.27136869952
 21
12204.29335995821
 31
0.0
  0
LINE
  5
369
330
6C
100
AcDbEntity
  8
Visible (ISO)
100
AcDbLine
 10
35648.27136869952
 20
12204.29335995821
 30
0.0
 11
35656.27136869952
 21
12212.29335995821
 31
0.0
  0
LINE
  5
36A
330
6C
100
AcDbEntity
  8
Visible (ISO)
100
AcDbLine
 10
35656.27136869952
 20
12204.29335995821
 30
0.0
 11
35648.27136869952
 21
12204.29335995821
 31
0.0
  0
LINE
  5
36B
330
6C
100
AcDbEntity
  8
Visible (ISO)
100
AcDbLine
 10
35648.27136869952
 20
12204.29335995821
 30
0.0
 11
35648.27136869952
 21
11780.29335995821
 31
0.0
  0
LINE
  5
36C
330
6C
100
AcDbEntity
  8
Visible (ISO)
100
AcDbLine
 10
35656.27136869952
 20
11780.29335995821
 30
0.0
 11
35656.27136869952
 21
12204.29335995821
 31
0.0
  0
LINE
  5
36D
330
6C
100
AcDbEntity
  8
Visible (ISO)
100
AcDbLine
 10
35890.27136869952
 20
12212.29335995821
 30
0.0
 11
35656.27136869952
 21
12212.29335995821
 31
0.0
  0
LINE
  5
36E
330
6C
100
AcDbEntity
  8
Visible (ISO)
100
AcDbLine
 10
35656.27136869952
 20
12204.29335995821
 30
0.0
 11
35890.27136869952
 21
12204.29335995821
 31
0.0
  0
LINE
  5
36F
330
6C
100
AcDbEntity
  8
Visible (ISO)
100
AcDbLine
 10
35656.27136869952
 20
11772.29335995821
 30
0.0
 11
35890.27136869952
 21
11772.29335995821
 31
0.0
  0
LINE
  5
370
330
6C
100
AcDbEntity
  8
Visible (ISO)
100
AcDbLine
 10
35890.27136869952
 20
11780.29335995821
 30
0.0
 11
35656.27136869952
 21
11780.29335995821
 31
0.0
  0
LINE
  5
371
330
6C
100
AcDbEntity
  8
Visible (ISO)
100
AcDbLine
 10
35898.27136869952
 20
11780.29335995821
 30
0.0
 11
35898.27136869952
 21
11782.29335995821
 31
0.0
  0
LINE
  5
372
330
6C
100
AcDbEntity
  8
Visible (ISO)
100
AcDbLine
 10
35898.27136869952
 20
11842.29335995821
 30
0.0
 11
35898.27136869952
 21
12204.29335995821
 31
0.0
  0
LINE
  5
373
330
6C
100
AcDbEntity
  8
Visible (ISO)
100
AcDbLine
 10
35890.27136869952
 20
12204.29335995821
 30
0.0
 11
35890.27136869952
 21
11780.29335995821
 31
0.0
  0
LINE
  5
374
330
6C
100
AcDbEntity
  8
Visible (ISO)
100
AcDbLine
 10
35890.27136869952
 20
12212.29335995821
 30
0.0
 11
35890.27136869952
 21
12220.29335995821
 31
0.0
  0
LINE
  5
375
330
6C
100
AcDbEntity
  8
Visible (ISO)
100
AcDbLine
 10
35898.27136869952
 20
12220.29335995821
 30
0.0
 11
35890.27136869952
 21
12212.29335995821
 31
0.0
  0
LINE
  5
376
330
6C
100
AcDbEntity
  8
Visible (ISO)
100
AcDbLine
 10
35890.27136869952
 20
12220.29335995821
 30
0.0
 11
35898.27136869952
 21
12220.29335995821
 31
0.0
  0
LINE
  5
377
330
6C
100
AcDbEntity
  8
Visible (ISO)
100
AcDbLine
 10
35898.27136869952
 20
12644.29335995821
 30
0.0
 11
35890.27136869952
 21
12644.29335995821
 31
0.0
  0
LINE
  5
378
330
6C
100
AcDbEntity
  8
Visible (ISO)
100
AcDbLine
 10
35890.27136869952
 20
12652.29335995821
 30
0.0
 11
35898.27136869952
 21
12644.29335995821
 31
0.0
  0
LINE
  5
379
330
6C
100
AcDbEntity
  8
Visible (ISO)
100
AcDbLine
 10
35890.27136869952
 20
12644.29335995821
 30
0.0
 11
35890.27136869952
 21
12652.29335995821
 31
0.0
  0
LINE
  5
37A
330
6C
100
AcDbEntity
  8
Visible (ISO)
100
AcDbLine
 10
35648.27136869952
 20
12220.29335995821
 30
0.0
 11
35656.27136869952
 21
12220.29335995821
 31
0.0
  0
LINE
  5
37B
330
6C
100
AcDbEntity
  8
Visible (ISO)
100
AcDbLine
 10
35656.27136869952
 20
12212.29335995821
 30
0.0
 11
35648.27136869952
 21
12220.29335995821
 31
0.0
  0
LINE
  5
37C
330
6C
100
AcDbEntity
  8
Visible (ISO)
100
AcDbLine
 10
35656.27136869952
 20
12220.29335995821
 30
0.0
 11
35656.27136869952
 21
12212.29335995821
 31
0.0
  0
LINE
  5
37D
330
6C
100
AcDbEntity
  8
Visible (ISO)
100
AcDbLine
 10
35656.27136869952
 20
12652.29335995821
 30
0.0
 11
35656.27136869952
 21
12644.29335995821
 31
0.0
  0
LINE
  5
37E
330
6C
100
AcDbEntity
  8
Visible (ISO)
100
AcDbLine
 10
35648.27136869952
 20
12644.29335995821
 30
0.0
 11
35656.27136869952
 21
12652.29335995821
 31
0.0
  0
LINE
  5
37F
330
6C
100
AcDbEntity
  8
Visible (ISO)
100
AcDbLine
 10
35656.27136869952
 20
12644.29335995821
 30
0.0
 11
35648.27136869952
 21
12644.29335995821
 31
0.0
  0
LINE
  5
380
330
6C
100
AcDbEntity
  8
Visible (ISO)
100
AcDbLine
 10
35648.27136869952
 20
12644.29335995821
 30
0.0
 11
35648.27136869952
 21
12220.29335995821
 31
0.0
  0
LINE
  5
381
330
6C
100
AcDbEntity
  8
Visible (ISO)
100
AcDbLine
 10
35656.27136869952
 20
12220.29335995821
 30
0.0
 11
35656.27136869952
 21
12644.29335995821
 31
0.0
  0
LINE
  5
382
330
6C
100
AcDbEntity
  8
Visible (ISO)
100
AcDbLine
 10
35890.27136869952
 20
12652.29335995821
 30
0.0
 11
35656.27136869952
 21
12652.29335995821
 31
0.0
  0
LINE
  5
383
330
6C
100
AcDbEntity
  8
Visible (ISO)
100
AcDbLine
 10
35656.27136869952
 20
12644.29335995821
 30
0.0
 11
35890.27136869952
 21
12644.29335995821
 31
0.0
  0
LINE
  5
384
330
6C
100
AcDbEntity
  8
Visible (ISO)
100
AcDbLine
 10
35656.27136869952
 20
12212.29335995821
 30
0.0
 11
35890.27136869952
 21
12212.29335995821
 31
0.0
  0
LINE
  5
385
330
6C
100
AcDbEntity
  8
Visible (ISO)
100
AcDbLine
 10
35890.27136869952
 20
12220.29335995821
 30
0.0
 11
35656.27136869952
 21
12220.29335995821
 31
0.0
  0
LINE
  5
386
330
6C
100
AcDbEntity
  8
Visible (ISO)
100
AcDbLine
 10
35898.27136869952
 20
12220.29335995821
 30
0.0
 11
35898.27136869952
 21
12644.29335995821
 31
0.0
  0
LINE
  5
387
330
6C
100
AcDbEntity
  8
Visible (ISO)
100
AcDbLine
 10
35890.27136869952
 20
12644.29335995821
 30
0.0
 11
35890.27136869952
 21
12220.29335995821
 31
0.0
  0
LINE
  5
388
330
6C
100
AcDbEntity
  8
Visible (ISO)
100
AcDbLine
 10
36890.27136869951
 20
11772.29335995821
 30
0.0
 11
36898.27136869952
 21
11764.29335995821
 31
0.0
  0
LINE
  5
389
330
6C
100
AcDbEntity
  8
Visible (ISO)
100
AcDbLine
 10
36890.27136869951
 20
11764.29335995821
 30
0.0
 11
36890.27136869951
 21
11772.29335995821
 31
0.0
  0
LINE
  5
38A
330
6C
100
AcDbEntity
  8
Visible (ISO)
100
AcDbLine
 10
36898.27136869952
 20
11764.29335995821
 30
0.0
 11
36890.27136869951
 21
11764.29335995821
 31
0.0
  0
LINE
  5
38B
330
6C
100
AcDbEntity
  8
Visible (ISO)
100
AcDbLine
 10
35906.27136869952
 20
11764.29335995821
 30
0.0
 11
35898.27136869952
 21
11764.29335995821
 31
0.0
  0
LINE
  5
38C
330
6C
100
AcDbEntity
  8
Visible (ISO)
100
AcDbLine
 10
35906.27136869952
 20
11772.29335995821
 30
0.0
 11
35906.27136869952
 21
11764.29335995821
 31
0.0
  0
LINE
  5
38D
330
6C
100
AcDbEntity
  8
Visible (ISO)
100
AcDbLine
 10
35898.27136869952
 20
11764.29335995821
 30
0.0
 11
35906.27136869952
 21
11772.29335995821
 31
0.0
  0
LINE
  5
38E
330
6C
100
AcDbEntity
  8
Visible (ISO)
100
AcDbLine
 10
36890.27136869951
 20
11772.29335995821
 30
0.0
 11
35906.27136869952
 21
11772.29335995821
 31
0.0
  0
LINE
  5
38F
330
6C
100
AcDbEntity
  8
Visible (ISO)
100
AcDbLine
 10
35906.27136869952
 20
11764.29335995821
 30
0.0
 11
36890.27136869951
 21
11764.29335995821
 31
0.0
  0
LINE
  5
390
330
6C
100
AcDbEntity
  8
Visible (ISO)
100
AcDbLine
 10
35906.27136869952
 20
11582.29335995821
 30
0.0
 11
35906.27136869952
 21
11764.29335995821
 31
0.0
  0
LINE
  5
391
330
6C
100
AcDbEntity
  8
Visible (ISO)
100
AcDbLine
 10
35898.27136869952
 20
11764.29335995821
 30
0.0
 11
35898.27136869952
 21
11582.29335995821
 31
0.0
  0
LINE
  5
392
330
6C
100
AcDbEntity
  8
Visible (ISO)
100
AcDbLine
 10
36890.27136869951
 20
11764.29335995821
 30
0.0
 11
36890.27136869951
 21
11353.38114594981
 31
0.0
  0
LINE
  5
393
330
6C
100
AcDbEntity
  8
Visible (ISO)
100
AcDbLine
 10
36898.27136869952
 20
11342.29335995821
 30
0.0
 11
36898.27136869952
 21
11764.29335995821
 31
0.0
  0
LINE
  5
394
330
6C
100
AcDbEntity
  8
Visible (ISO)
100
AcDbLine
 10
37148.27136869952
 20
11764.29335995821
 30
0.0
 11
37140.27136869952
 21
11764.29335995821
 31
0.0
  0
LINE
  5
395
330
6C
100
AcDbEntity
  8
Visible (ISO)
100
AcDbLine
 10
37140.27136869952
 20
11772.29335995821
 30
0.0
 11
37148.27136869952
 21
11764.29335995821
 31
0.0
  0
LINE
  5
396
330
6C
100
AcDbEntity
  8
Visible (ISO)
100
AcDbLine
 10
37140.27136869952
 20
11764.29335995821
 30
0.0
 11
37140.27136869952
 21
11772.29335995821
 31
0.0
  0
LINE
  5
397
330
6C
100
AcDbEntity
  8
Visible (ISO)
100
AcDbLine
 10
36906.27136869952
 20
11772.29335995821
 30
0.0
 11
36906.27136869952
 21
11764.29335995821
 31
0.0
  0
LINE
  5
398
330
6C
100
AcDbEntity
  8
Visible (ISO)
100
AcDbLine
 10
36898.27136869952
 20
11764.29335995821
 30
0.0
 11
36906.27136869952
 21
11772.29335995821
 31
0.0
  0
LINE
  5
399
330
6C
100
AcDbEntity
  8
Visible (ISO)
100
AcDbLine
 10
36906.27136869952
 20
11764.29335995821
 30
0.0
 11
36898.27136869952
 21
11764.29335995821
 31
0.0
  0
LINE
  5
39A
330
6C
100
AcDbEntity
  8
Visible (ISO)
100
AcDbLine
 10
36898.27136869952
 20
11764.29335995821
 30
0.0
 11
36898.27136869952
 21
11342.29335995822
 31
0.0
  0
LINE
  5
39B
330
6C
100
AcDbEntity
  8
Visible (ISO)
100
AcDbLine
 10
36906.27136869952
 20
11342.29335995821
 30
0.0
 11
36906.27136869952
 21
11764.29335995821
 31
0.0
  0
LINE
  5
39C
330
6C
100
AcDbEntity
  8
Visible (ISO)
100
AcDbLine
 10
37140.27136869952
 20
11772.29335995821
 30
0.0
 11
36906.27136869952
 21
11772.29335995821
 31
0.0
  0
LINE
  5
39D
330
6C
100
AcDbEntity
  8
Visible (ISO)
100
AcDbLine
 10
36906.27136869952
 20
11764.29335995821
 30
0.0
 11
37140.27136869952
 21
11764.29335995821
 31
0.0
  0
LINE
  5
39E
330
6C
100
AcDbEntity
  8
Visible (ISO)
100
AcDbLine
 10
37148.27136869952
 20
11342.29335995822
 30
0.0
 11
37148.27136869952
 21
11764.29335995821
 31
0.0
  0
LINE
  5
39F
330
6C
100
AcDbEntity
  8
Visible (ISO)
100
AcDbLine
 10
37140.27136869952
 20
11764.29335995821
 30
0.0
 11
37140.27136869952
 21
11342.29335995821
 31
0.0
  0
LINE
  5
3A0
330
6C
100
AcDbEntity
  8
Visible (ISO)
100
AcDbLine
 10
37140.27136869952
 20
11772.29335995822
 30
0.0
 11
37140.27136869952
 21
11780.29335995822
 31
0.0
  0
LINE
  5
3A1
330
6C
100
AcDbEntity
  8
Visible (ISO)
100
AcDbLine
 10
37148.27136869952
 20
11780.29335995822
 30
0.0
 11
37140.27136869952
 21
11772.29335995822
 31
0.0
  0
LINE
  5
3A2
330
6C
100
AcDbEntity
  8
Visible (ISO)
100
AcDbLine
 10
37140.27136869952
 20
11780.29335995822
 30
0.0
 11
37148.27136869952
 21
11780.29335995822
 31
0.0
  0
LINE
  5
3A3
330
6C
100
AcDbEntity
  8
Visible (ISO)
100
AcDbLine
 10
37148.27136869952
 20
12204.29335995821
 30
0.0
 11
37140.27136869952
 21
12204.29335995821
 31
0.0
  0
LINE
  5
3A4
330
6C
100
AcDbEntity
  8
Visible (ISO)
100
AcDbLine
 10
37140.27136869952
 20
12212.29335995821
 30
0.0
 11
37148.27136869952
 21
12204.29335995821
 31
0.0
  0
LINE
  5
3A5
330
6C
100
AcDbEntity
  8
Visible (ISO)
100
AcDbLine
 10
37140.27136869952
 20
12204.29335995821
 30
0.0
 11
37140.27136869952
 21
12212.29335995821
 31
0.0
  0
LINE
  5
3A6
330
6C
100
AcDbEntity
  8
Visible (ISO)
100
AcDbLine
 10
36898.27136869952
 20
11780.29335995822
 30
0.0
 11
36906.27136869952
 21
11780.29335995822
 31
0.0
  0
LINE
  5
3A7
330
6C
100
AcDbEntity
  8
Visible (ISO)
100
AcDbLine
 10
36906.27136869952
 20
11772.29335995822
 30
0.0
 11
36898.27136869952
 21
11780.29335995822
 31
0.0
  0
LINE
  5
3A8
330
6C
100
AcDbEntity
  8
Visible (ISO)
100
AcDbLine
 10
36906.27136869952
 20
11780.29335995822
 30
0.0
 11
36906.27136869952
 21
11772.29335995822
 31
0.0
  0
LINE
  5
3A9
330
6C
100
AcDbEntity
  8
Visible (ISO)
100
AcDbLine
 10
36906.27136869952
 20
12212.29335995821
 30
0.0
 11
36906.27136869952
 21
12204.29335995821
 31
0.0
  0
LINE
  5
3AA
330
6C
100
AcDbEntity
  8
Visible (ISO)
100
AcDbLine
 10
36898.27136869952
 20
12204.29335995821
 30
0.0
 11
36906.27136869952
 21
12212.29335995821
 31
0.0
  0
LINE
  5
3AB
330
6C
100
AcDbEntity
  8
Visible (ISO)
100
AcDbLine
 10
36906.27136869952
 20
12204.29335995821
 30
0.0
 11
36898.27136869952
 21
12204.29335995821
 31
0.0
  0
LINE
  5
3AC
330
6C
100
AcDbEntity
  8
Visible (ISO)
100
AcDbLine
 10
36898.27136869952
 20
12204.29335995821
 30
0.0
 11
36898.27136869952
 21
11842.29335995821
 31
0.0
  0
LINE
  5
3AD
330
6C
100
AcDbEntity
  8
Visible (ISO)
100
AcDbLine
 10
36898.27136869952
 20
11782.29335995822
 30
0.0
 11
36898.27136869952
 21
11780.29335995822
 31
0.0
  0
LINE
  5
3AE
330
6C
100
AcDbEntity
  8
Visible (ISO)
100
AcDbLine
 10
36906.27136869952
 20
11780.29335995822
 30
0.0
 11
36906.27136869952
 21
12204.29335995821
 31
0.0
  0
LINE
  5
3AF
330
6C
100
AcDbEntity
  8
Visible (ISO)
100
AcDbLine
 10
37140.27136869952
 20
12212.29335995821
 30
0.0
 11
36906.27136869952
 21
12212.29335995821
 31
0.0
  0
LINE
  5
3B0
330
6C
100
AcDbEntity
  8
Visible (ISO)
100
AcDbLine
 10
36906.27136869952
 20
12204.29335995821
 30
0.0
 11
37140.27136869952
 21
12204.29335995821
 31
0.0
  0
LINE
  5
3B1
330
6C
100
AcDbEntity
  8
Visible (ISO)
100
AcDbLine
 10
36906.27136869952
 20
11772.29335995822
 30
0.0
 11
37140.27136869952
 21
11772.29335995822
 31
0.0
  0
LINE
  5
3B2
330
6C
100
AcDbEntity
  8
Visible (ISO)
100
AcDbLine
 10
37140.27136869952
 20
11780.29335995822
 30
0.0
 11
36906.27136869952
 21
11780.29335995822
 31
0.0
  0
LINE
  5
3B3
330
6C
100
AcDbEntity
  8
Visible (ISO)
100
AcDbLine
 10
37148.27136869952
 20
11780.29335995822
 30
0.0
 11
37148.27136869952
 21
12204.29335995821
 31
0.0
  0
LINE
  5
3B4
330
6C
100
AcDbEntity
  8
Visible (ISO)
100
AcDbLine
 10
37140.27136869952
 20
12204.29335995821
 30
0.0
 11
37140.27136869952
 21
11780.29335995822
 31
0.0
  0
LINE
  5
3B5
330
6C
100
AcDbEntity
  8
Visible (ISO)
100
AcDbLine
 10
34148.27136869952
 20
13542.29335995814
 30
0.0
 11
34148.27136869952
 21
13602.29335995814
 31
0.0
  0
ARC
  5
3B6
330
6C
100
AcDbEntity
  8
Visible (ISO)
100
AcDbCircle
 10
34138.27136869951
 20
13602.29335995814
 30
0.0
 40
9.999999999999978
100
AcDbArc
 50
0.0
 51
90.0
  0
ARC
  5
3B7
330
6C
100
AcDbEntity
  8
Visible (ISO)
100
AcDbCircle
 10
34138.27136869951
 20
13542.29335995814
 30
0.0
 40
9.999999999999978
100
AcDbArc
 50
270.0
 51
0.0
  0
ARC
  5
3B8
330
6C
100
AcDbEntity
  8
Visible (ISO)
100
AcDbCircle
 10
33158.27136869953
 20
13602.29335995814
 30
0.0
 40
9.999999999999976
100
AcDbArc
 50
90.0
 51
180.0
  0
LINE
  5
3B9
330
6C
100
AcDbEntity
  8
Visible (ISO)
100
AcDbLine
 10
33148.27136869952
 20
13602.29335995814
 30
0.0
 11
33148.27136869952
 21
13584.14335995815
 31
0.0
  0
LINE
  5
3BA
330
6C
100
AcDbEntity
  8
Visible (ISO)
100
AcDbLine
 10
33148.27136869952
 20
13550.44335995815
 30
0.0
 11
33148.27136869952
 21
13542.29335995814
 31
0.0
  0
ARC
  5
3BB
330
6C
100
AcDbEntity
  8
Visible (ISO)
100
AcDbCircle
 10
33158.27136869953
 20
13542.29335995814
 30
0.0
 40
9.999999999999976
100
AcDbArc
 50
180.0
 51
270.0
  0
LINE
  5
3BC
330
6C
100
AcDbEntity
  8
Visible (ISO)
100
AcDbLine
 10
34138.27136869951
 20
13612.29335995814
 30
0.0
 11
34073.2713686995
 21
13612.29335995814
 31
0.0
  0
LINE
  5
3BD
330
6C
100
AcDbEntity
  8
Visible (ISO)
100
AcDbLine
 10
33968.27136869951
 20
13612.29335995814
 30
0.0
 11
33158.27136869953
 21
13612.29335995814
 31
0.0
  0
LINE
  5
3BE
330
6C
100
AcDbEntity
  8
Visible (ISO)
100
AcDbLine
 10
33148.27136869952
 20
13542.29335995814
 30
0.0
 11
33148.27136869952
 21
13550.44335995815
 31
0.0
  0
LINE
  5
3BF
330
6C
100
AcDbEntity
  8
Visible (ISO)
100
AcDbLine
 10
33148.27136869952
 20
13584.14335995815
 30
0.0
 11
33148.27136869952
 21
13602.29335995814
 31
0.0
  0
ARC
  5
3C0
330
6C
100
AcDbEntity
  8
Visible (ISO)
100
AcDbCircle
 10
33138.27136869952
 20
13602.29335995814
 30
0.0
 40
10.0
100
AcDbArc
 50
0.0
 51
90.0
  0
ARC
  5
3C1
330
6C
100
AcDbEntity
  8
Visible (ISO)
100
AcDbCircle
 10
33138.27136869952
 20
13542.29335995814
 30
0.0
 40
10.0
100
AcDbArc
 50
270.0
 51
0.0
  0
ARC
  5
3C2
330
6C
100
AcDbEntity
  8
Visible (ISO)
100
AcDbCircle
 10
32158.27136869952
 20
13602.29335995814
 30
0.0
 40
9.999999999999989
100
AcDbArc
 50
90.0
 51
180.0
  0
LINE
  5
3C3
330
6C
100
AcDbEntity
  8
Visible (ISO)
100
AcDbLine
 10
32148.27136869952
 20
13602.29335995814
 30
0.0
 11
32148.27136869952
 21
13542.29335995814
 31
0.0
  0
ARC
  5
3C4
330
6C
100
AcDbEntity
  8
Visible (ISO)
100
AcDbCircle
 10
32158.27136869952
 20
13542.29335995814
 30
0.0
 40
9.999999999999989
100
AcDbArc
 50
180.0
 51
270.0
  0
LINE
  5
3C5
330
6C
100
AcDbEntity
  8
Visible (ISO)
100
AcDbLine
 10
33138.27136869952
 20
13612.29335995814
 30
0.0
 11
32378.27136869951
 21
13612.29335995814
 31
0.0
  0
LINE
  5
3C6
330
6C
100
AcDbEntity
  8
Visible (ISO)
100
AcDbLine
 10
32273.27136869954
 20
13612.29335995814
 30
0.0
 11
32158.27136869952
 21
13612.29335995814
 31
0.0
  0
ARC
  5
3C7
330
6C
100
AcDbEntity
  8
Visible (ISO)
100
AcDbCircle
 10
35658.27136869952
 20
12722.29335995822
 30
0.0
 40
10.0
100
AcDbArc
 50
90.0
 51
180.0
  0
ARC
  5
3C8
330
6C
100
AcDbEntity
  8
Visible (ISO)
100
AcDbCircle
 10
35888.27136869952
 20
12662.29335995821
 30
0.0
 40
10.0
100
AcDbArc
 50
270.0
 51
0.0
  0
ARC
  5
3C9
330
6C
100
AcDbEntity
  8
Visible (ISO)
100
AcDbCircle
 10
35658.27136869952
 20
12662.29335995821
 30
0.0
 40
10.0
100
AcDbArc
 50
180.0
 51
270.0
  0
LINE
  5
3CA
330
6C
100
AcDbEntity
  8
Visible (ISO)
100
AcDbLine
 10
35648.27136869952
 20
12722.29335995821
 30
0.0
 11
35648.27136869952
 21
12662.29335995821
 31
0.0
  0
LINE
  5
3CB
330
6C
100
AcDbEntity
  8
Visible (ISO)
100
AcDbLine
 10
35898.27136869952
 20
12662.29335995821
 30
0.0
 11
35898.27136869952
 21
12722.29335995821
 31
0.0
  0
ARC
  5
3CC
330
6C
100
AcDbEntity
  8
Visible (ISO)
100
AcDbCircle
 10
35888.27136869952
 20
12722.29335995822
 30
0.0
 40
10.0
100
AcDbArc
 50
0.0
 51
90.0
  0
LINE
  5
3CD
330
6C
100
AcDbEntity
  8
Visible (ISO)
100
AcDbLine
 10
35888.27136869952
 20
12732.29335995821
 30
0.0
 11
35658.27136869952
 21
12732.29335995821
 31
0.0
  0
ARC
  5
3CE
330
6C
100
AcDbEntity
  8
Visible (ISO)
100
AcDbCircle
 10
35908.27136869953
 20
11842.29335995821
 30
0.0
 40
9.999999999999941
100
AcDbArc
 50
90.0
 51
180.0
  0
LINE
  5
3CF
330
6C
100
AcDbEntity
  8
Visible (ISO)
100
AcDbLine
 10
35898.27136869953
 20
11842.29335995821
 30
0.0
 11
35898.27136869952
 21
11782.29335995821
 31
0.0
  0
ARC
  5
3D0
330
6C
100
AcDbEntity
  8
Visible (ISO)
100
AcDbCircle
 10
35908.27136869953
 20
11782.29335995821
 30
0.0
 40
9.999999999999941
100
AcDbArc
 50
180.0
 51
270.0
  0
ARC
  5
3D1
330
6C
100
AcDbEntity
  8
Visible (ISO)
100
AcDbCircle
 10
36888.27136869951
 20
11782.29335995821
 30
0.0
 40
9.999999999999941
100
AcDbArc
 50
270.0
 51
0.0
  0
LINE
  5
3D2
330
6C
100
AcDbEntity
  8
Visible (ISO)
100
AcDbLine
 10
36898.27136869952
 20
11782.29335995821
 30
0.0
 11
36898.27136869952
 21
11842.29335995821
 31
0.0
  0
ARC
  5
3D3
330
6C
100
AcDbEntity
  8
Visible (ISO)
100
AcDbCircle
 10
36888.27136869951
 20
11842.29335995821
 30
0.0
 40
9.999999999999941
100
AcDbArc
 50
0.0
 51
90.0
  0
LINE
  5
3D4
330
6C
100
AcDbEntity
  8
Visible (ISO)
100
AcDbLine
 10
36888.27136869951
 20
11852.29335995821
 30
0.0
 11
35908.27136869953
 21
11852.29335995821
 31
0.0
  0
ARC
  5
3D5
330
6C
100
AcDbEntity
  8
Visible (ISO)
100
AcDbCircle
 10
36908.27136869952
 20
12282.29335995821
 30
0.0
 40
9.999999999999918
100
AcDbArc
 50
90.0
 51
180.0
  0
ARC
  5
3D6
330
6C
100
AcDbEntity
  8
Visible (ISO)
100
AcDbCircle
 10
37138.27136869952
 20
12222.29335995821
 30
0.0
 40
9.999999999999916
100
AcDbArc
 50
270.0
 51
0.0
  0
ARC
  5
3D7
330
6C
100
AcDbEntity
  8
Visible (ISO)
100
AcDbCircle
 10
36908.27136869952
 20
12222.29335995821
 30
0.0
 40
9.999999999999918
100
AcDbArc
 50
180.0
 51
270.0
  0
LINE
  5
3D8
330
6C
100
AcDbEntity
  8
Visible (ISO)
100
AcDbLine
 10
36898.27136869952
 20
12282.29335995821
 30
0.0
 11
36898.27136869952
 21
12222.29335995821
 31
0.0
  0
LINE
  5
3D9
330
6C
100
AcDbEntity
  8
Visible (ISO)
100
AcDbLine
 10
37148.27136869952
 20
12222.29335995821
 30
0.0
 11
37148.27136869952
 21
12282.29335995821
 31
0.0
  0
ARC
  5
3DA
330
6C
100
AcDbEntity
  8
Visible (ISO)
100
AcDbCircle
 10
37138.27136869952
 20
12282.29335995821
 30
0.0
 40
9.999999999999916
100
AcDbArc
 50
0.0
 51
90.0
  0
LINE
  5
3DB
330
6C
100
AcDbEntity
  8
Visible (ISO)
100
AcDbLine
 10
37138.27136869952
 20
12292.29335995821
 30
0.0
 11
36908.27136869952
 21
12292.29335995821
 31
0.0
  0
CIRCLE
  5
3DC
330
6C
100
AcDbEntity
  8
Visible (ISO)
100
AcDbCircle
 10
33273.27136869952
 20
11662.29335995814
 30
0.0
 40
20.0
  0
CIRCLE
  5
3DD
330
6C
100
AcDbEntity
  8
Visible (ISO)
100
AcDbCircle
 10
33273.27136869952
 20
11442.29335995814
 30
0.0
 40
20.0
  0
ARC
  5
3DE
330
6C
100
AcDbEntity
  8
Visible (ISO)
100
AcDbCircle
 10
32273.27136869952
 20
11662.29335995814
 30
0.0
 40
20.0
100
AcDbArc
 50
89.99999999993894
 51
269.9999999999389
  0
ARC
  5
3DF
330
6C
100
AcDbEntity
  8
Visible (ISO)
100
AcDbCircle
 10
32273.27136869952
 20
11442.29335995814
 30
0.0
 40
20.0
100
AcDbArc
 50
89.99999999993894
 51
269.9999999999389
  0
CIRCLE
  5
3E0
330
6C
100
AcDbEntity
  8
Visible (ISO)
100
AcDbCircle
 10
33023.27136869952
 20
11662.29335995814
 30
0.0
 40
20.0
  0
CIRCLE
  5
3E1
330
6C
100
AcDbEntity
  8
Visible (ISO)
100
AcDbCircle
 10
33023.27136869952
 20
11442.29335995814
 30
0.0
 40
20.0
  0
CIRCLE
  5
3E2
330
6C
100
AcDbEntity
  8
Visible (ISO)
100
AcDbCircle
 10
33273.27136869952
 20
12102.29335995814
 30
0.0
 40
20.0
  0
CIRCLE
  5
3E3
330
6C
100
AcDbEntity
  8
Visible (ISO)
100
AcDbCircle
 10
33273.27136869952
 20
11882.29335995814
 30
0.0
 40
20.0
  0
ARC
  5
3E4
330
6C
100
AcDbEntity
  8
Visible (ISO)
100
AcDbCircle
 10
32273.27136869952
 20
12102.29335995814
 30
0.0
 40
20.0
100
AcDbArc
 50
89.99999999993894
 51
269.9999999999389
  0
ARC
  5
3E5
330
6C
100
AcDbEntity
  8
Visible (ISO)
100
AcDbCircle
 10
32273.27136869952
 20
11882.29335995814
 30
0.0
 40
20.0
100
AcDbArc
 50
89.99999999993894
 51
269.9999999999389
  0
CIRCLE
  5
3E6
330
6C
100
AcDbEntity
  8
Visible (ISO)
100
AcDbCircle
 10
33023.27136869952
 20
12102.29335995814
 30
0.0
 40
20.0
  0
CIRCLE
  5
3E7
330
6C
100
AcDbEntity
  8
Visible (ISO)
100
AcDbCircle
 10
33023.27136869952
 20
11882.29335995814
 30
0.0
 40
20.0
  0
CIRCLE
  5
3E8
330
6C
100
AcDbEntity
  8
Visible (ISO)
100
AcDbCircle
 10
33273.27136869952
 20
12542.29335995814
 30
0.0
 40
20.0
  0
CIRCLE
  5
3E9
330
6C
100
AcDbEntity
  8
Visible (ISO)
100
AcDbCircle
 10
33273.27136869952
 20
12322.29335995814
 30
0.0
 40
20.0
  0
ARC
  5
3EA
330
6C
100
AcDbEntity
  8
Visible (ISO)
100
AcDbCircle
 10
32273.27136869952
 20
12542.29335995814
 30
0.0
 40
20.0
100
AcDbArc
 50
89.99999999993894
 51
269.9999999999389
  0
ARC
  5
3EB
330
6C
100
AcDbEntity
  8
Visible (ISO)
100
AcDbCircle
 10
32273.27136869952
 20
12322.29335995814
 30
0.0
 40
20.0
100
AcDbArc
 50
89.99999999993894
 51
269.9999999999389
  0
CIRCLE
  5
3EC
330
6C
100
AcDbEntity
  8
Visible (ISO)
100
AcDbCircle
 10
33023.27136869952
 20
12542.29335995814
 30
0.0
 40
20.0
  0
CIRCLE
  5
3ED
330
6C
100
AcDbEntity
  8
Visible (ISO)
100
AcDbCircle
 10
33023.27136869952
 20
12322.29335995814
 30
0.0
 40
20.0
  0
CIRCLE
  5
3EE
330
6C
100
AcDbEntity
  8
Visible (ISO)
100
AcDbCircle
 10
33273.27136869952
 20
12982.29335995814
 30
0.0
 40
20.0
  0
CIRCLE
  5
3EF
330
6C
100
AcDbEntity
  8
Visible (ISO)
100
AcDbCircle
 10
33273.27136869952
 20
12762.29335995814
 30
0.0
 40
20.0
  0
ARC
  5
3F0
330
6C
100
AcDbEntity
  8
Visible (ISO)
100
AcDbCircle
 10
32273.27136869952
 20
12982.29335995814
 30
0.0
 40
20.0
100
AcDbArc
 50
89.99999999993894
 51
269.9999999999389
  0
ARC
  5
3F1
330
6C
100
AcDbEntity
  8
Visible (ISO)
100
AcDbCircle
 10
32273.27136869952
 20
12762.29335995814
 30
0.0
 40
20.0
100
AcDbArc
 50
89.99999999993894
 51
269.9999999999389
  0
CIRCLE
  5
3F2
330
6C
100
AcDbEntity
  8
Visible (ISO)
100
AcDbCircle
 10
33023.27136869952
 20
12982.29335995814
 30
0.0
 40
20.0
  0
CIRCLE
  5
3F3
330
6C
100
AcDbEntity
  8
Visible (ISO)
100
AcDbCircle
 10
33023.27136869952
 20
12762.29335995814
 30
0.0
 40
20.0
  0
CIRCLE
  5
3F4
330
6C
100
AcDbEntity
  8
Visible (ISO)
100
AcDbCircle
 10
33273.27136869952
 20
13422.29335995814
 30
0.0
 40
20.0
  0
CIRCLE
  5
3F5
330
6C
100
AcDbEntity
  8
Visible (ISO)
100
AcDbCircle
 10
33273.27136869952
 20
13202.29335995814
 30
0.0
 40
20.0
  0
ARC
  5
3F6
330
6C
100
AcDbEntity
  8
Visible (ISO)
100
AcDbCircle
 10
32273.27136869952
 20
13202.29335995814
 30
0.0
 40
20.0
100
AcDbArc
 50
89.99999999993894
 51
269.9999999999389
  0
CIRCLE
  5
3F7
330
6C
100
AcDbEntity
  8
Visible (ISO)
100
AcDbCircle
 10
33023.27136869952
 20
13422.29335995813
 30
0.0
 40
20.0
  0
CIRCLE
  5
3F8
330
6C
100
AcDbEntity
  8
Visible (ISO)
100
AcDbCircle
 10
33023.27136869952
 20
13202.29335995814
 30
0.0
 40
20.0
  0
CIRCLE
  5
3F9
330
6C
100
AcDbEntity
  8
Visible (ISO)
100
AcDbCircle
 10
35773.27136869952
 20
11662.29335995821
 30
0.0
 40
20.0
  0
ARC
  5
3FA
330
6C
100
AcDbEntity
  8
Visible (ISO)
100
AcDbCircle
 10
35773.27136869952
 20
11442.29335995821
 30
0.0
 40
20.0
100
AcDbArc
 50
55.30204245338644
 51
299.4214905161675
  0
CIRCLE
  5
3FB
330
6C
100
AcDbEntity
  8
Visible (ISO)
100
AcDbCircle
 10
35773.27136869952
 20
12102.29335995821
 30
0.0
 40
20.0
  0
CIRCLE
  5
3FC
330
6C
100
AcDbEntity
  8
Visible (ISO)
100
AcDbCircle
 10
35773.27136869952
 20
11882.29335995821
 30
0.0
 40
20.0
  0
CIRCLE
  5
3FD
330
6C
100
AcDbEntity
  8
Visible (ISO)
100
AcDbCircle
 10
35773.27136869952
 20
12542.29335995821
 30
0.0
 40
20.0
  0
CIRCLE
  5
3FE
330
6C
100
AcDbEntity
  8
Visible (ISO)
100
AcDbCircle
 10
35773.27136869952
 20
12322.29335995821
 30
0.0
 40
20.0
  0
CIRCLE
  5
3FF
330
6C
100
AcDbEntity
  8
Visible (ISO)
100
AcDbCircle
 10
36023.27136869952
 20
11662.29335995821
 30
0.0
 40
20.0
  0
CIRCLE
  5
400
330
6C
100
AcDbEntity
  8
Visible (ISO)
100
AcDbCircle
 10
36023.27136869952
 20
11442.29335995821
 30
0.0
 40
20.0
  0
CIRCLE
  5
401
330
6C
100
AcDbEntity
  8
Visible (ISO)
100
AcDbCircle
 10
36773.27136869952
 20
11662.29335995821
 30
0.0
 40
20.0
  0
CIRCLE
  5
402
330
6C
100
AcDbEntity
  8
Visible (ISO)
100
AcDbCircle
 10
37023.27136869952
 20
11662.29335995821
 30
0.0
 40
20.0
  0
CIRCLE
  5
403
330
6C
100
AcDbEntity
  8
Visible (ISO)
100
AcDbCircle
 10
37023.27136869952
 20
11442.29335995821
 30
0.0
 40
20.0
  0
CIRCLE
  5
404
330
6C
100
AcDbEntity
  8
Visible (ISO)
100
AcDbCircle
 10
37023.27136869952
 20
12102.29335995821
 30
0.0
 40
20.0
  0
CIRCLE
  5
405
330
6C
100
AcDbEntity
  8
Visible (ISO)
100
AcDbCircle
 10
37023.27136869952
 20
11882.29335995821
 30
0.0
 40
20.0
  0
LINE
  5
406
330
6C
100
AcDbEntity
  8
Visible (ISO)
100
AcDbLine
 10
30278.27136869951
 20
13441.29335995786
 30
0.0
 11
32268.27136869955
 21
13441.29335995786
 31
0.0
  0
LINE
  5
407
330
6C
100
AcDbEntity
  8
Visible (ISO)
100
AcDbLine
 10
30278.27136869951
 20
13403.29335995786
 30
0.0
 11
32268.27136869955
 21
13403.29335995786
 31
0.0
  0
LINE
  5
408
330
6C
100
AcDbEntity
  8
Visible (ISO)
100
AcDbLine
 10
32268.27136869955
 20
13374.79335995785
 30
0.0
 11
32268.27136869955
 21
13384.79335995785
 31
0.0
  0
LINE
  5
409
330
6C
100
AcDbEntity
  8
Visible (ISO)
100
AcDbLine
 10
32268.27136869955
 20
13374.79335995785
 30
0.0
 11
32273.27136869954
 21
13374.79335995785
 31
0.0
  0
LINE
  5
40A
330
6C
100
AcDbEntity
  8
Visible (ISO)
100
AcDbLine
 10
32273.27136869954
 20
13469.79335995785
 30
0.0
 11
32268.27136869955
 21
13469.79335995785
 31
0.0
  0
LINE
  5
40B
330
6C
100
AcDbEntity
  8
Visible (ISO)
100
AcDbLine
 10
32268.27136869955
 20
13459.79335995785
 30
0.0
 11
32268.27136869955
 21
13469.79335995785
 31
0.0
  0
LINE
  5
40C
330
6C
100
AcDbEntity
  8
Visible (ISO)
100
AcDbLine
 10
32268.27136869955
 20
13459.79335995785
 30
0.0
 11
32268.27136869955
 21
13384.79335995785
 31
0.0
  0
LINE
  5
40D
330
6C
100
AcDbEntity
  8
Visible (ISO)
100
AcDbLine
 10
30278.27136869952
 20
13469.79335995785
 30
0.0
 11
30278.27136869952
 21
13459.79335995785
 31
0.0
  0
LINE
  5
40E
330
6C
100
AcDbEntity
  8
Visible (ISO)
100
AcDbLine
 10
30278.27136869952
 20
13469.79335995785
 30
0.0
 11
30273.27136869952
 21
13469.79335995785
 31
0.0
  0
LINE
  5
40F
330
6C
100
AcDbEntity
  8
Visible (ISO)
100
AcDbLine
 10
30273.27136869952
 20
13374.79335995785
 30
0.0
 11
30278.27136869952
 21
13374.79335995785
 31
0.0
  0
LINE
  5
410
330
6C
100
AcDbEntity
  8
Visible (ISO)
100
AcDbLine
 10
30278.27136869952
 20
13384.79335995784
 30
0.0
 11
30278.27136869952
 21
13374.79335995785
 31
0.0
  0
LINE
  5
411
330
6C
100
AcDbEntity
  8
Visible (ISO)
100
AcDbLine
 10
30278.27136869952
 20
13384.79335995785
 30
0.0
 11
30278.27136869952
 21
13459.79335995785
 31
0.0
  0
LINE
  5
412
330
6C
100
AcDbEntity
  8
Visible (ISO)
100
AcDbLine
 10
33968.27136869951
 20
13519.79335995785
 30
0.0
 11
33968.27136869951
 21
13529.79335995785
 31
0.0
  0
LINE
  5
413
330
6C
100
AcDbEntity
  8
Visible (ISO)
100
AcDbLine
 10
33968.27136869951
 20
13519.79335995785
 30
0.0
 11
33973.27136869951
 21
13519.79335995785
 31
0.0
  0
LINE
  5
414
330
6C
100
AcDbEntity
  8
Visible (ISO)
100
AcDbLine
 10
33973.27136869951
 20
13614.79335995785
 30
0.0
 11
33968.27136869951
 21
13614.79335995785
 31
0.0
  0
LINE
  5
415
330
6C
100
AcDbEntity
  8
Visible (ISO)
100
AcDbLine
 10
33968.27136869951
 20
13604.79335995785
 30
0.0
 11
33968.27136869951
 21
13614.79335995785
 31
0.0
  0
LINE
  5
416
330
6C
100
AcDbEntity
  8
Visible (ISO)
100
AcDbLine
 10
33968.27136869951
 20
13604.79335995785
 30
0.0
 11
33968.27136869951
 21
13529.79335995785
 31
0.0
  0
LINE
  5
417
330
6C
100
AcDbEntity
  8
Visible (ISO)
100
AcDbLine
 10
32373.27136869951
 20
13519.79335995785
 30
0.0
 11
32378.27136869951
 21
13519.79335995785
 31
0.0
  0
LINE
  5
418
330
6C
100
AcDbEntity
  8
Visible (ISO)
100
AcDbLine
 10
32378.27136869951
 20
13529.79335995784
 30
0.0
 11
32378.27136869951
 21
13519.79335995785
 31
0.0
  0
LINE
  5
419
330
6C
100
AcDbEntity
  8
Visible (ISO)
100
AcDbLine
 10
32378.27136869951
 20
13614.79335995785
 30
0.0
 11
32378.27136869951
 21
13604.79335995784
 31
0.0
  0
LINE
  5
41A
330
6C
100
AcDbEntity
  8
Visible (ISO)
100
AcDbLine
 10
32378.27136869951
 20
13614.79335995785
 30
0.0
 11
32373.27136869951
 21
13614.79335995785
 31
0.0
  0
LINE
  5
41B
330
6C
100
AcDbEntity
  8
Visible (ISO)
100
AcDbLine
 10
32378.27136869951
 20
13529.79335995784
 30
0.0
 11
32378.27136869951
 21
13604.79335995785
 31
0.0
  0
LINE
  5
41C
330
6C
100
AcDbEntity
  8
Visible (ISO)
100
AcDbLine
 10
32273.27136869954
 20
13632.29335995784
 30
0.0
 11
32273.27136869954
 21
11342.29335995783
 31
0.0
  0
LINE
  5
41F
330
6C
100
AcDbEntity
  8
Visible (ISO)
100
AcDbLine
 10
32373.27136869954
 20
11342.29335995783
 30
0.0
 11
32373.27136869954
 21
13632.29335995784
 31
0.0
  0
LINE
  5
420
330
6C
100
AcDbEntity
  8
Visible (ISO)
100
AcDbLine
 10
32368.27136869954
 20
13632.29335995784
 30
0.0
 11
32278.27136869954
 21
13632.29335995784
 31
0.0
  0
LINE
  5
469
330
6C
100
AcDbEntity
  8
Visible (ISO)
100
AcDbLine
 10
33973.27136869951
 20
13632.29335995784
 30
0.0
 11
33973.27136869952
 21
11342.29335995783
 31
0.0
  0
LINE
  5
46C
330
6C
100
AcDbEntity
  8
Visible (ISO)
100
AcDbLine
 10
34073.27136869951
 20
11342.29335995783
 30
0.0
 11
34073.2713686995
 21
13632.29335995784
 31
0.0
  0
LINE
  5
46D
330
6C
100
AcDbEntity
  8
Visible (ISO)
100
AcDbLine
 10
34068.27136869951
 20
13632.29335995784
 30
0.0
 11
33978.27136869951
 21
13632.29335995784
 31
0.0
  0
LINE
  5
46E
330
6C
100
AcDbEntity
  8
Visible (ISO)
100
AcDbLine
 10
33968.27136869951
 20
13550.44335995786
 30
0.0
 11
32378.27136869951
 21
13550.44335995786
 31
0.0
  0
LINE
  5
46F
330
6C
100
AcDbEntity
  8
Visible (ISO)
100
AcDbLine
 10
33968.27136869951
 20
13584.14335995786
 30
0.0
 11
32378.27136869951
 21
13584.14335995786
 31
0.0
  0
LINE
  5
470
330
6C
100
AcDbEntity
  8
Visible (ISO)
100
AcDbLine
 10
30273.27136869954
 20
13489.29335995817
 30
0.0
 11
30273.27136869959
 21
13932.29335995862
 31
0.0
  0
LINE
  5
471
330
6C
100
AcDbEntity
  8
Visible (ISO)
100
AcDbLine
 10
30173.27136869959
 20
13932.29335995863
 30
0.0
 11
30173.27136869953
 21
13489.29335995817
 31
0.0
  0
LINE
  5
472
330
6C
100
AcDbEntity
  8
Visible (ISO)
100
AcDbLine
 10
30268.27136869959
 20
13932.29335995862
 30
0.0
 11
30178.27136869959
 21
13932.29335995863
 31
0.0
  0
LINE
  5
473
330
6C
100
AcDbEntity
  8
Visible (ISO)
100
AcDbLine
 10
30268.27136869952
 20
13487.29335995784
 30
0.0
 11
30178.27136869952
 21
13487.29335995784
 31
0.0
  0
LINE
  5
474
330
6C
100
AcDbEntity
  8
Visible (ISO)
100
AcDbLine
 10
30173.27136869952
 20
13487.29335995784
 30
0.0
 11
30173.27136869952
 21
11342.29335995783
 31
0.0
  0
LINE
  5
477
330
6C
100
AcDbEntity
  8
Visible (ISO)
100
AcDbLine
 10
30273.27136869952
 20
11342.29335995783
 30
0.0
 11
30273.27136869952
 21
13487.29335995784
 31
0.0
  0
LINE
  5
47B
330
6C
100
AcDbEntity
  8
Visible (ISO)
100
AcDbLine
 10
35704.77136869951
 20
11582.29335995777
 30
0.0
 11
35541.77136869951
 21
11582.29335995777
 31
0.0
  0
LINE
  5
47E
330
6C
100
AcDbEntity
  8
Visible (ISO)
100
AcDbLine
 10
35704.77136869951
 20
11582.29335995777
 30
0.0
 11
35715.83019222893
 21
11342.29335995777
 31
0.0
  0
LINE
  5
480
330
6C
100
AcDbEntity
  8
Visible (ISO)
100
AcDbLine
 10
35541.77136869951
 20
11582.29335995777
 30
0.0
 11
35530.71254517011
 21
11342.29335995777
 31
0.0
  0
LINE
  5
485
330
6C
100
AcDbEntity
  8
Visible (ISO)
100
AcDbLine
 10
35953.34967254812
 20
11582.29335995759
 30
0.0
 11
35790.34967254812
 21
11582.29335995759
 31
0.0
  0
LINE
  5
488
330
6C
100
AcDbEntity
  8
Visible (ISO)
100
AcDbLine
 10
35953.34967254812
 20
11582.29335995759
 30
0.0
 11
35964.40849607752
 21
11342.29335995759
 31
0.0
  0
LINE
  5
48A
330
6C
100
AcDbEntity
  8
Visible (ISO)
100
AcDbLine
 10
35790.34967254812
 20
11582.29335995759
 30
0.0
 11
35779.29084901871
 21
11342.29335995759
 31
0.0
  0
LINE
  5
48F
330
6C
100
AcDbEntity
  8
Visible (ISO)
100
AcDbLine
 10
37465.86488414112
 20
11582.2933599576
 30
0.0
 11
37302.86488414112
 21
11582.2933599576
 31
0.0
  0
LINE
  5
492
330
6C
100
AcDbEntity
  8
Visible (ISO)
100
AcDbLine
 10
37465.86488414112
 20
11582.2933599576
 30
0.0
 11
37476.92370767053
 21
11342.2933599576
 31
0.0
  0
LINE
  5
494
330
6C
100
AcDbEntity
  8
Visible (ISO)
100
AcDbLine
 10
37302.86488414112
 20
11582.2933599576
 30
0.0
 11
37291.80606061171
 21
11342.2933599576
 31
0.0
  0
LINE
  5
499
330
6C
100
AcDbEntity
  8
Visible (ISO)
100
AcDbLine
 10
36879.72345295599
 20
11582.2933599575
 30
0.0
 11
36716.723452956
 21
11582.2933599575
 31
0.0
  0
LINE
  5
49C
330
6C
100
AcDbEntity
  8
Visible (ISO)
100
AcDbLine
 10
36879.72345295599
 20
11582.2933599575
 30
0.0
 11
36890.78227648541
 21
11342.2933599575
 31
0.0
  0
LINE
  5
49E
330
6C
100
AcDbEntity
  8
Visible (ISO)
100
AcDbLine
 10
36716.723452956
 20
11582.2933599575
 30
0.0
 11
36705.66462942659
 21
11342.2933599575
 31
0.0
  0
LINE
  5
4A3
330
6C
100
AcDbEntity
  8
Visible (ISO)
100
AcDbLine
 10
36576.00844093252
 20
11582.29335995768
 30
0.0
 11
36413.00844093251
 21
11582.29335995768
 31
0.0
  0
LINE
  5
4A6
330
6C
100
AcDbEntity
  8
Visible (ISO)
100
AcDbLine
 10
36576.00844093252
 20
11582.29335995768
 30
0.0
 11
36587.06726446192
 21
11342.29335995768
 31
0.0
  0
LINE
  5
4A8
330
6C
100
AcDbEntity
  8
Visible (ISO)
100
AcDbLine
 10
36413.00844093251
 20
11582.29335995768
 30
0.0
 11
36401.94961740311
 21
11342.29335995768
 31
0.0
  0
LINE
  5
4AA
330
6C
100
AcDbEntity
  8
Visible (ISO)
100
AcDbLine
 10
30273.27136869959
 20
13932.29335995862
 30
0.0
 11
30270.27136869959
 21
13932.29335995862
 31
0.0
  0
LINE
  5
4AB
330
6C
100
AcDbEntity
  8
Visible (ISO)
100
AcDbLine
 10
30176.27136869959
 20
13932.29335995863
 30
0.0
 11
30173.27136869959
 21
13932.29335995863
 31
0.0
  0
ARC
  5
4AC
330
6C
100
AcDbEntity
  8
Visible (ISO)
100
AcDbCircle
 10
30176.27136869959
 20
13934.29335995863
 30
0.0
 40
3.000000000000001
100
AcDbArc
 50
90.0
 51
180.0
  0
LINE
  5
4AD
330
6C
100
AcDbEntity
  8
Visible (ISO)
100
AcDbLine
 10
30173.27136869959
 20
13934.29335995863
 30
0.0
 11
30173.27136869959
 21
13932.29335995863
 31
0.0
  0
ARC
  5
4AE
330
6C
100
AcDbEntity
  8
Visible (ISO)
100
AcDbCircle
 10
30270.27136869959
 20
13934.29335995862
 30
0.0
 40
3.000000000000007
100
AcDbArc
 50
0.0
 51
90.0
  0
LINE
  5
4AF
330
6C
100
AcDbEntity
  8
Visible (ISO)
100
AcDbLine
 10
30273.27136869959
 20
13932.29335995862
 30
0.0
 11
30273.27136869959
 21
13934.29335995862
 31
0.0
  0
LINE
  5
4B0
330
6C
100
AcDbEntity
  8
Visible (ISO)
100
AcDbLine
 10
30270.27136869959
 20
13937.29335995862
 30
0.0
 11
30176.27136869959
 21
13937.29335995863
 31
0.0
  0
LINE
  5
4B1
330
6C
100
AcDbEntity
  8
Visible (ISO)
100
AcDbLine
 10
30270.27136869959
 20
13932.29335995862
 30
0.0
 11
30176.27136869959
 21
13932.29335995863
 31
0.0
  0
LINE
  5
4B2
330
6C
100
AcDbEntity
  8
Visible (ISO)
100
AcDbLine
 10
30273.27136869952
 20
13487.29335995784
 30
0.0
 11
30270.27136869953
 21
13487.29335995784
 31
0.0
  0
LINE
  5
4B3
330
6C
100
AcDbEntity
  8
Visible (ISO)
100
AcDbLine
 10
30176.27136869952
 20
13487.29335995784
 30
0.0
 11
30173.27136869952
 21
13487.29335995784
 31
0.0
  0
ARC
  5
4B4
330
6C
100
AcDbEntity
  8
Visible (ISO)
100
AcDbCircle
 10
30176.27136869952
 20
13489.29335995784
 30
0.0
 40
3.000000000000001
100
AcDbArc
 50
90.0
 51
180.0
  0
LINE
  5
4B5
330
6C
100
AcDbEntity
  8
Visible (ISO)
100
AcDbLine
 10
30173.27136869952
 20
13489.29335995784
 30
0.0
 11
30173.27136869952
 21
13487.29335995784
 31
0.0
  0
ARC
  5
4B6
330
6C
100
AcDbEntity
  8
Visible (ISO)
100
AcDbCircle
 10
30270.27136869953
 20
13489.29335995784
 30
0.0
 40
3.000000000000007
100
AcDbArc
 50
0.0
 51
90.0
  0
LINE
  5
4B7
330
6C
100
AcDbEntity
  8
Visible (ISO)
100
AcDbLine
 10
30273.27136869952
 20
13487.29335995784
 30
0.0
 11
30273.27136869952
 21
13489.29335995784
 31
0.0
  0
LINE
  5
4B8
330
6C
100
AcDbEntity
  8
Visible (ISO)
100
AcDbLine
 10
30270.27136869953
 20
13492.29335995784
 30
0.0
 11
30176.27136869952
 21
13492.29335995784
 31
0.0
  0
LINE
  5
4B9
330
6C
100
AcDbEntity
  8
Visible (ISO)
100
AcDbLine
 10
30270.27136869953
 20
13487.29335995784
 30
0.0
 11
30176.27136869952
 21
13487.29335995784
 31
0.0
  0
LINE
  5
4BA
330
6C
100
AcDbEntity
  8
Visible (ISO)
100
AcDbLine
 10
32373.27136869954
 20
13632.29335995784
 30
0.0
 11
32370.27136869953
 21
13632.29335995784
 31
0.0
  0
LINE
  5
4BB
330
6C
100
AcDbEntity
  8
Visible (ISO)
100
AcDbLine
 10
32276.27136869954
 20
13632.29335995784
 30
0.0
 11
32273.27136869954
 21
13632.29335995784
 31
0.0
  0
ARC
  5
4BC
330
6C
100
AcDbEntity
  8
Visible (ISO)
100
AcDbCircle
 10
32276.27136869954
 20
13634.29335995784
 30
0.0
 40
3.000000000000001
100
AcDbArc
 50
90.0
 51
180.0
  0
LINE
  5
4BD
330
6C
100
AcDbEntity
  8
Visible (ISO)
100
AcDbLine
 10
32273.27136869954
 20
13634.29335995784
 30
0.0
 11
32273.27136869954
 21
13632.29335995784
 31
0.0
  0
ARC
  5
4BE
330
6C
100
AcDbEntity
  8
Visible (ISO)
100
AcDbCircle
 10
32370.27136869953
 20
13634.29335995784
 30
0.0
 40
3.000000000000007
100
AcDbArc
 50
0.0
 51
90.0
  0
LINE
  5
4BF
330
6C
100
AcDbEntity
  8
Visible (ISO)
100
AcDbLine
 10
32373.27136869954
 20
13632.29335995784
 30
0.0
 11
32373.27136869954
 21
13634.29335995784
 31
0.0
  0
LINE
  5
4C0
330
6C
100
AcDbEntity
  8
Visible (ISO)
100
AcDbLine
 10
32370.27136869953
 20
13637.29335995784
 30
0.0
 11
32276.27136869954
 21
13637.29335995784
 31
0.0
  0
LINE
  5
4C1
330
6C
100
AcDbEntity
  8
Visible (ISO)
100
AcDbLine
 10
32370.27136869953
 20
13632.29335995784
 30
0.0
 11
32276.27136869954
 21
13632.29335995784
 31
0.0
  0
LINE
  5
4C2
330
6C
100
AcDbEntity
  8
Visible (ISO)
100
AcDbLine
 10
34073.2713686995
 20
13632.29335995784
 30
0.0
 11
34070.2713686995
 21
13632.29335995784
 31
0.0
  0
LINE
  5
4C3
330
6C
100
AcDbEntity
  8
Visible (ISO)
100
AcDbLine
 10
33976.2713686995
 20
13632.29335995784
 30
0.0
 11
33973.27136869951
 21
13632.29335995784
 31
0.0
  0
ARC
  5
4C4
330
6C
100
AcDbEntity
  8
Visible (ISO)
100
AcDbCircle
 10
33976.2713686995
 20
13634.29335995784
 30
0.0
 40
3.000000000000001
100
AcDbArc
 50
90.0
 51
180.0
  0
LINE
  5
4C5
330
6C
100
AcDbEntity
  8
Visible (ISO)
100
AcDbLine
 10
33973.27136869951
 20
13634.29335995784
 30
0.0
 11
33973.27136869951
 21
13632.29335995784
 31
0.0
  0
ARC
  5
4C6
330
6C
100
AcDbEntity
  8
Visible (ISO)
100
AcDbCircle
 10
34070.2713686995
 20
13634.29335995784
 30
0.0
 40
3.000000000000007
100
AcDbArc
 50
0.0
 51
90.0
  0
LINE
  5
4C7
330
6C
100
AcDbEntity
  8
Visible (ISO)
100
AcDbLine
 10
34073.2713686995
 20
13632.29335995784
 30
0.0
 11
34073.2713686995
 21
13634.29335995784
 31
0.0
  0
LINE
  5
4C8
330
6C
100
AcDbEntity
  8
Visible (ISO)
100
AcDbLine
 10
34070.2713686995
 20
13637.29335995784
 30
0.0
 11
33976.2713686995
 21
13637.29335995784
 31
0.0
  0
LINE
  5
4C9
330
6C
100
AcDbEntity
  8
Visible (ISO)
100
AcDbLine
 10
34070.2713686995
 20
13632.29335995784
 30
0.0
 11
33976.2713686995
 21
13632.29335995784
 31
0.0
  0
LINE
  5
4CA
330
6C
100
AcDbEntity
  8
Visible (ISO)
100
AcDbLine
 10
37820.52866868412
 20
11342.29335995717
 30
0.0
 11
38884.36488414112
 21
11342.2933599576
 31
0.0
  0
LINE
  5
4CB
330
6C
100
AcDbEntity
  8
Visible (ISO)
100
AcDbLine
 10
28603.27136869959
 20
11342.29335995783
 30
0.0
 11
30103.27136869959
 21
11342.29335995739
 31
0.0
  0
LINE
  5
4CC
330
6C
100
AcDbEntity
  8
Visible (ISO)
100
AcDbLine
 10
35344.11874143557
 20
11342.29335995739
 30
0.0
 11
30103.27136869959
 21
11342.29335995739
 31
0.0
  0
LINE
  5
4CD
330
6C
100
AcDbEntity
  8
Visible (ISO)
100
AcDbLine
 10
35344.11874143557
 20
11342.29335995739
 30
0.0
 11
37820.52866868411
 21
11342.29335995718
 31
0.0
  0
LINE
  5
4CE
330
6C
100
AcDbEntity
  8
Visible (ISO)
100
AcDbLine
 10
35344.11874143557
 20
11342.29335995739
 30
0.0
 11
35344.11874143557
 21
11332.29335995739
 31
0.0
  0
LINE
  5
4CF
330
6C
100
AcDbEntity
  8
Visible (ISO)
100
AcDbLine
 10
30103.27136869959
 20
11332.29335995739
 30
0.0
 11
35344.11874143557
 21
11332.29335995739
 31
0.0
  0
LINE
  5
4D0
330
6C
100
AcDbEntity
  8
Visible (ISO)
100
AcDbLine
 10
28603.27136869959
 20
11332.29335995783
 30
0.0
 11
28603.27136869959
 21
11342.29335995783
 31
0.0
  0
LINE
  5
4D1
330
6C
100
AcDbEntity
  8
Visible (ISO)
100
AcDbLine
 10
30103.27136869959
 20
11332.29335995739
 30
0.0
 11
28603.27136869959
 21
11332.29335995783
 31
0.0
  0
LINE
  5
4D2
330
6C
100
AcDbEntity
  8
Visible (ISO)
100
AcDbLine
 10
37820.52866868412
 20
11342.29335995717
 30
0.0
 11
37820.52866868412
 21
11332.29335995717
 31
0.0
  0
LINE
  5
4D3
330
6C
100
AcDbEntity
  8
Visible (ISO)
100
AcDbLine
 10
37820.52866868412
 20
11332.29335995717
 30
0.0
 11
38884.36488414112
 21
11332.2933599576
 31
0.0
  0
LINE
  5
4D4
330
6C
100
AcDbEntity
  8
Visible (ISO)
100
AcDbLine
 10
35344.11874143557
 20
11332.29335995739
 30
0.0
 11
37820.52866868411
 21
11332.29335995717
 31
0.0
  0
LINE
  5
4D5
330
6C
100
AcDbEntity
  8
Visible (ISO)
100
AcDbLine
 10
38884.36488414112
 20
11332.2933599576
 30
0.0
 11
38884.36488414112
 21
11342.2933599576
 31
0.0
  0
DIMENSION
  5
4D6
330
6C
100
AcDbEntity
  8
Dimension (ISO)
100
AcDbDimension
  2
*D7
 10
38884.36488413942
 20
1860.757161756024
 30
0.0
 11
33743.81812641864
 21
1860.757161756024
 31
0.0
 70
   160
  1
<>
 71
     2
 42
10281.09351544154
  3
Default (ISO)
100
AcDbAlignedDimension
 13
28603.27136869788
 23
5400.149792161922
 33
0.0
 14
38884.36488413942
 24
4610.731041823888
 34
0.0
 50
180.0
100
AcDbRotatedDimension
1001
ACAD
1000
DSTYLE
1002
{
1070
   172
1070
     0
1070
   289
1070
     1
1070
    74
1070
     0
1070
   271
1070
     0
1070
   272
1070
     2
1070
    48
1040
0.0
1070
    47
1040
0.0
1002
}
  0
DIMENSION
  5
5B9
330
6C
100
AcDbEntity
  8
Dimension (ISO)
100
AcDbDimension
  2
*D8
 10
40234.31795867582
 20
9175.149792161922
 30
0.0
 11
40234.31795867582
 21
5973.718796403061
 31
0.0
 70
   160
  1
<>
 71
     2
 42
6402.861991517724
  3
Default (ISO)
100
AcDbAlignedDimension
 13
36797.22345295429
 23
2772.287800644198
 33
0.0
 14
37148.27136869781
 24
9175.149792161922
 34
0.0
 50
270.0
100
AcDbRotatedDimension
1001
ACAD
1000
DSTYLE
1002
{
1070
   172
1070
     0
1070
   289
1070
     1
1070
    74
1070
     0
1070
   271
1070
     0
1070
   272
1070
     2
1070
    48
1040
0.0
1070
    47
1040
0.0
1002
}
  0
DIMENSION
  5
6A1
330
6C
100
AcDbEntity
  8
Dimension (ISO)
100
AcDbDimension
  2
*D9
 10
37148.27136869781
 20
8419.28292360699
 30
0.0
 11
33660.77136869785
 21
8419.28292360699
 31
0.0
 70
   160
  1
<>
 71
     2
 42
6974.99999999993
  3
Default (ISO)
100
AcDbAlignedDimension
 13
30173.27136869788
 23
7897.149792161922
 33
0.0
 14
37148.27136869781
 24
7670.149792161914
 34
0.0
 50
180.0
100
AcDbRotatedDimension
1001
ACAD
1000
DSTYLE
1002
{
1070
   172
1070
     0
1070
   289
1070
     1
1070
    74
1070
     0
1070
   271
1070
     2
1070
   272
1070
     2
1070
    48
1040
0.0
1070
    47
1040
0.0
1002
}
  0
DIMENSION
  5
783
330
6C
100
AcDbEntity
  8
Dimension (ISO)
100
AcDbDimension
  2
*D10
 10
29618.76608053937
 20
5400.149792161924
 30
0.0
 11
29618.76608053937
 21
6650.149792161925
 31
0.0
 70
   160
  1
<>
 71
     2
 42
2500.0
  3
Default (ISO)
100
AcDbAlignedDimension
 13
30176.27136869788
 23
7900.149792161923
 33
0.0
 14
30176.27136869782
 24
5400.149792161924
 34
0.0
 50
90.0
100
AcDbRotatedDimension
1001
ACAD
1000
DSTYLE
1002
{
1070
   172
1070
     0
1070
   289
1070
     1
1070
    74
1070
     0
1070
   271
1070
     2
1070
   272
1070
     2
1070
    48
1040
0.0
1070
    47
1040
0.0
1002
}
  0
DIMENSION
  5
86B
330
6C
100
AcDbEntity
  8
Dimension (ISO)
100
AcDbDimension
  2
*D11
 10
29635.18069083622
 20
11342.29335995761
 30
0.0
 11
29635.18069083622
 21
12637.29335995812
 31
0.0
 70
   160
  1
<>
 71
     2
 42
2590.000000001015
  3
Default (ISO)
100
AcDbAlignedDimension
 13
30176.27136869959
 23
13932.29335995863
 33
0.0
 14
29635.18069083622
 24
11342.29335995761
 34
0.0
 50
90.0
100
AcDbRotatedDimension
1001
ACAD
1000
DSTYLE
1002
{
1070
   172
1070
     0
1070
   289
1070
     1
1070
    74
1070
     0
1070
   271
1070
     2
1070
    76
1070
     1
1070
   272
1070
     2
1070
    48
1040
0.0
1070
    47
1040
0.0
1002
}
  0
DIMENSION
  5
950
330
6C
100
AcDbEntity
  8
Dimension (ISO)
100
AcDbDimension
  2
*D12
 10
38885.87740426181
 20
11342.29335995728
 30
0.0
 11
38885.87740426181
 21
12530.1186094034
 31
0.0
 70
   160
  1
<>
 71
     2
 42
240.0000000003183
  3
Default (ISO)
100
AcDbAlignedDimension
 13
37465.86488414112
 23
11582.2933599576
 33
0.0
 14
37820.52866868411
 24
11342.29335995728
 34
0.0
 50
270.0
100
AcDbRotatedDimension
1001
ACAD
1000
DSTYLE
1002
{
1070
   172
1070
     1
1070
   289
1070
     1
1070
    74
1070
     0
1070
   271
1070
     2
1070
   272
1070
     2
1070
    48
1040
0.0
1070
    47
1040
0.0
1002
}
  0
DIMENSION
  5
A62
330
6C
100
AcDbEntity
  8
Dimension (ISO)
100
AcDbDimension
  2
*D13
 10
35140.73472869346
 20
11342.29335995739
 30
0.0
 11
35140.73472869346
 21
12037.2933599578
 31
0.0
 70
   160
  1
<>
 71
     2
 42
1390.000000000824
  3
Default (ISO)
100
AcDbAlignedDimension
 13
35658.27136869952
 23
12732.29335995821
 33
0.0
 14
35344.11874143557
 24
11342.29335995739
 34
0.0
 50
90.0
100
AcDbRotatedDimension
1001
ACAD
1000
DSTYLE
1002
{
1070
   172
1070
     0
1070
   289
1070
     1
1070
    74
1070
     0
1070
   271
1070
     2
1070
    76
1070
     1
1070
   272
1070
     2
1070
    48
1040
0.0
1070
    47
1040
0.0
1002
}
  0
DIMENSION
  5
B47
330
6C
100
AcDbEntity
  8
Dimension (ISO)
100
AcDbDimension
  2
*D14
 10
37872.06489654427
 20
11342.29335995728
 30
0.0
 11
37872.06489654427
 21
13054.30392381263
 31
0.0
 70
   160
  1
<>
 71
     2
 42
950.0000000009277
  3
Default (ISO)
100
AcDbAlignedDimension
 13
37138.27136869952
 23
12292.29335995821
 33
0.0
 14
37820.52866868411
 24
11342.29335995728
 34
0.0
 50
90.0
100
AcDbRotatedDimension
1001
ACAD
1000
DSTYLE
1002
{
1070
   172
1070
     0
1070
   289
1070
     2
1070
    74
1070
     0
1070
   271
1070
     2
1070
   272
1070
     2
1070
    48
1040
0.0
1070
    47
1040
0.0
1002
}
  0
DIMENSION
  5
C47
330
6C
100
AcDbEntity
  8
Dimension (ISO)
100
AcDbDimension
  2
*D15
 10
31754.77696881781
 20
11342.29335995739
 30
0.0
 11
31754.7769688178
 21
12477.29335995776
 31
0.0
 70
   160
  1
<>
 71
     2
 42
2270.00000000075
  3
Default (ISO)
100
AcDbAlignedDimension
 13
32158.27136869952
 23
13612.29335995814
 33
0.0
 14
31754.77696881781
 24
11342.29335995739
 34
0.0
 50
90.0
100
AcDbRotatedDimension
1001
ACAD
1000
DSTYLE
1002
{
1070
   172
1070
     0
1070
   289
1070
     1
1070
    74
1070
     0
1070
   271
1070
     2
1070
    76
1070
     1
1070
   272
1070
     2
1070
    48
1040
0.0
1070
    47
1040
0.0
1002
}
  0
INSERT
  5
D37
330
6C
100
AcDbEntity
  8
0
100
AcDbBlockReference
 66
     1
  2
Tabelki rysunkowe Rzut
 10
12022.31837028164
 20
-1074.130542460445
 30
0.0
 41
100.0
 42
100.0
 43
100.0
  0
ATTRIB
  5
D39
102
{ACAD_XDICTIONARY
360
D47
102
}
330
D37
100
AcDbEntity
  8
Title (ISO)
100
AcDbText
 10
29900.0
 20
750.0
 30
0.0
 40
250.0
  1

  7
Note Text (ISO)
 11
29900.0
 21
1000.0
 31
0.0
100
AcDbAttribute
  2
Numer_katalogowy
 70
     0
 74
     3
  0
ATTRIB
  5
D3A
102
{ACAD_XDICTIONARY
360
D4A
102
}
330
D37
100
AcDbEntity
  8
Title (ISO)
100
AcDbText
 10
31063.3982539799
 20
39.5903307288105
 30
0.0
 40
250.0
  1
2019-03-26
  7
Note Text (ISO)
100
AcDbAttribute
  2
DATA_UTWORZENIA_001
 70
     0
  0
ATTRIB
  5
D3B
102
{ACAD_XDICTIONARY
360
D4D
102
}
330
D37
100
AcDbEntity
  8
Title (ISO)
100
AcDbText
 10
29900.0
 20
400.0
 30
0.0
 40
250.0
  1

  7
Note Text (ISO)
 11
29900.0
 21
649.9999999999999
 31
0.0
100
AcDbAttribute
  2
Nazwa
 70
     0
 74
     3
  0
SEQEND
  5
D38
330
D37
100
AcDbEntity
  8
0
  0
INSERT
  5
EB0
330
6C
100
AcDbEntity
  8
0
100
AcDbBlockReference
  2
88501_Street-workout-parkour-1
 10
34040.12136869781
 20
5965.149792161921
 30
0.0
  0
ENDSEC
  0
SECTION
  2
OBJECTS
  0
DICTIONARY
  5
C
330
0
100
AcDbDictionary
281
     1
  3
ACAD_BACKGROUND
350
DA8
  3
ACAD_COLOR
350
63
  3
ACAD_GROUP
350
D
  3
ACAD_LAYOUT
350
62
  3
ACAD_MATERIAL
350
10
  3
ACAD_MLEADERSTYLE
350
66
  3
ACAD_MLINESTYLE
350
5F
  3
ACAD_PLOTSETTINGS
350
61
  3
ACAD_PLOTSTYLENAME
350
E
  3
ACAD_SCALELIST
350
42
  3
ACAD_TABLESTYLE
350
64
  3
ACAD_VISUALSTYLE
350
29
  3
ACDB_RECOMPOSE_DATA
350
EBF
  3
AcDbVariableDictionary
350
D93
  3
DWGPROPS
350
EC0
  0
DICTIONARY
  5
D52
330
8
100
AcDbDictionary
280
     1
281
     1
  0
DICTIONARY
  5
D3E
330
D33
100
AcDbDictionary
280
     1
281
     1
  3
ACAD_MLATT
360
EB4
  3
ACAD_XREC_ROUNDTRIP
360
EB3
  0
DICTIONARY
  5
D41
330
D35
100
AcDbDictionary
280
     1
281
     1
  3
ACAD_MLATT
360
EB6
  3
ACAD_XREC_ROUNDTRIP
360
EB5
  0
DICTIONARY
  5
D44
330
D36
100
AcDbDictionary
280
     1
281
     1
  3
ACAD_MLATT
360
EB8
  3
ACAD_XREC_ROUNDTRIP
360
EB7
  0
DICTIONARY
  5
D47
330
D39
100
AcDbDictionary
280
     1
281
     1
  3
ACAD_MLATT
360
EBA
  3
ACAD_XREC_ROUNDTRIP
360
EB9
  0
DICTIONARY
  5
D4A
330
D3A
100
AcDbDictionary
280
     1
281
     1
  3
ACAD_MLATT
360
EBC
  3
ACAD_XREC_ROUNDTRIP
360
EBB
  0
DICTIONARY
  5
D4D
330
D3B
100
AcDbDictionary
280
     1
281
     1
  3
ACAD_MLATT
360
EBE
  3
ACAD_XREC_ROUNDTRIP
360
EBD
  0
DICTIONARY
  5
DA8
102
{ACAD_REACTORS
330
C
102
}
330
C
100
AcDbDictionary
281
     1
  0
DICTIONARY
  5
63
102
{ACAD_REACTORS
330
C
102
}
330
C
100
AcDbDictionary
281
     1
  0
DICTIONARY
  5
D
102
{ACAD_REACTORS
330
C
102
}
330
C
100
AcDbDictionary
281
     1
  0
DICTIONARY
  5
62
102
{ACAD_REACTORS
330
C
102
}
330
C
100
AcDbDictionary
281
     1
  3
Layout1
350
6B
  3
Layout2
350
73
  3
Model
350
6F
  0
DICTIONARY
  5
10
102
{ACAD_REACTORS
330
C
102
}
330
C
100
AcDbDictionary
281
     1
  3
ByBlock
350
19
  3
ByLayer
350
11
  3
Global
350
21
  0
DICTIONARY
  5
66
102
{ACAD_REACTORS
330
C
102
}
330
C
100
AcDbDictionary
281
     1
  3
Standard
350
67
  0
DICTIONARY
  5
5F
102
{ACAD_REACTORS
330
C
102
}
330
C
100
AcDbDictionary
281
     1
  3
Standard
350
60
  0
DICTIONARY
  5
61
102
{ACAD_REACTORS
330
C
102
}
330
C
100
AcDbDictionary
281
     1
  0
ACDBDICTIONARYWDFLT
  5
E
102
{ACAD_REACTORS
330
C
102
}
330
C
100
AcDbDictionary
281
     1
  3
Normal
350
F
100
AcDbDictionaryWithDefault
340
F
  0
DICTIONARY
  5
42
102
{ACAD_REACTORS
330
C
102
}
330
C
100
AcDbDictionary
281
     1
  3
A0
350
43
  3
A1
350
44
  3
A2
350
45
  3
A3
350
46
  3
A4
350
47
  3
A5
350
48
  3
A6
350
49
  3
A7
350
4A
  3
A8
350
4B
  3
A9
350
4C
  3
B0
350
4D
  3
B1
350
4E
  3
B2
350
4F
  3
B3
350
50
  3
B4
350
51
  3
B5
350
52
  3
B6
350
53
  0
DICTIONARY
  5
64
102
{ACAD_REACTORS
330
C
102
}
330
C
100
AcDbDictionary
281
     1
  3
Standard
350
65
  0
DICTIONARY
  5
29
102
{ACAD_REACTORS
330
C
102
}
330
C
100
AcDbDictionary
281
     1
  3
2dWireframe
350
2F
  3
Basic
350
2E
  3
Brighten
350
35
  3
ColorChange
350
39
  3
Conceptual
350
32
  3
Dim
350
34
  3
EdgeColorOff
350
41
  3
Facepattern
350
38
  3
Flat
350
2A
  3
FlatWithEdges
350
2B
  3
Gouraud
350
2C
  3
GouraudWithEdges
350
2D
  3
Hidden
350
31
  3
JitterOff
350
3F
  3
Linepattern
350
37
  3
OverhangOff
350
40
  3
Realistic
350
33
  3
Shaded
350
3E
  3
Shaded with edges
350
3D
  3
Shades of Gray
350
3A
  3
Sketchy
350
3B
  3
Thicken
350
36
  3
Wireframe
350
30
  3
X-Ray
350
3C
  0
XRECORD
  5
EBF
102
{ACAD_REACTORS
330
C
102
}
330
C
100
AcDbXrecord
280
     1
 90
        1
330
65
330
B47
330
D33
330
D35
330
D36
330
D39
330
D3A
330
D3B
  0
DICTIONARY
  5
D93
102
{ACAD_REACTORS
330
C
102
}
330
C
100
AcDbDictionary
281
     1
  3
CANNOSCALE
350
D97
  3
CMLEADERSTYLE
350
D95
  3
CTABLESTYLE
350
D94
  3
DIMASSOC
350
D9E
  3
HIDETEXT
350
D9D
  3
INDEXCTL
350
D9C
  3
LAYEREVAL
350
D99
  3
LAYERNOTIFY
350
D9A
  3
LIGHTINGUNITS
350
D98
  3
MSLTSCALE
350
D96
  3
SORTENTS
350
D9B
  3
XCLIPFRAME
350
EB1
  0
XRECORD
  5
EC0
102
{ACAD_REACTORS
330
C
102
}
330
C
100
AcDbXrecord
280
     1
  1
DWGPROPS COOKIE
  2

  3

  4
Maruszak Marcin
  6

  7

  8
Natalia
  9
v1
300
Menadżer=
301
Firma=Muller Jelcz-Laskowice Sp.z o.o.
302
Kategoria=
303
Numer części=
304
Opis=
305
Projekt=
306
Projektant=Maruszak Marcin
307
Inżynier=Maruszak Marcin
308
Zatwierdził=Ośkiewicz Ryszard
309
Centrum kosztów=
 40
0.0009222337962963
 41
2458569.34041279
 42
2458621.549319398
  1
www.muller.com.pl
 90
       19
300
Dostawca=
300
Stan użytkownika=
300
Stan projektu=PracaWToku
300
Sprawdził=
300
Zatwierdził konstrukcję=
300
Zatwierdził do produkcji=
300
Kolor=szary
300
Stanowisko=Ploter
300
mat.=
  0
XRECORD
  5
EB4
102
{ACAD_REACTORS
330
D3E
102
}
330
D3E
100
AcDbXrecord
280
     1
 70
     4
 70
     0
 70
     0
 40
1.0
  2
Numer_katalogowy
  1
Embedded Object
 10
178.7768162971835
 20
20.74130542460446
 30
0.0
 40
2.5
 41
39.63119806127143
 46
0.0
 71
     1
 72
     5
  1

  7
Note Text (ISO)
 73
     1
 44
1.0
  0
XRECORD
  5
EB3
102
{ACAD_REACTORS
330
D3E
102
}
330
D3E
100
AcDbXrecord
280
     1
102
ACAD_MATT_HEIGHT
140
2.5
  0
XRECORD
  5
EB6
102
{ACAD_REACTORS
330
D41
102
}
330
D41
100
AcDbXrecord
280
     1
 70
     4
 70
     0
 70
     0
 40
1.0
  2
DATA_UTWORZENIA
  1
Embedded Object
 10
190.5938075676742
 20
13.68925708649296
 30
0.0
 40
2.5
 41
40.52963831958745
 46
0.0
 71
     1
 72
     5
  1
2019-03-26
  7
Note Text (ISO)
 73
     1
 44
1.0
  0
XRECORD
  5
EB5
102
{ACAD_REACTORS
330
D41
102
}
330
D41
100
AcDbXrecord
280
     1
102
ACAD_MATT_HEIGHT
140
2.5
  0
XRECORD
  5
EB8
102
{ACAD_REACTORS
330
D44
102
}
330
D44
100
AcDbXrecord
280
     1
 70
     4
 70
     0
 70
     0
 40
1.0
  2
Nazwa
  1
Embedded Object
 10
178.7768162971835
 20
17.24130542460445
 30
0.0
 40
2.5
 41
38.632931107587
 46
0.0
 71
     1
 72
     5
  1

  7
Note Text (ISO)
 73
     1
 44
1.0
  0
XRECORD
  5
EB7
102
{ACAD_REACTORS
330
D44
102
}
330
D44
100
AcDbXrecord
280
     1
102
ACAD_MATT_HEIGHT
140
2.5
  0
XRECORD
  5
EBA
102
{ACAD_REACTORS
330
D47
102
}
330
D47
100
AcDbXrecord
280
     1
 70
     2
 70
     0
 70
     0
 40
1.0
  2
Numer_katalogowy
  1
Embedded Object
 10
29900.0
 20
1000.0
 30
0.0
 40
250.0
 41
3963.119806127143
 46
0.0
 71
     1
 72
     5
  1

  7
Note Text (ISO)
 73
     1
 44
1.0
  0
XRECORD
  5
EB9
102
{ACAD_REACTORS
330
D47
102
}
330
D47
100
AcDbXrecord
280
     1
102
ACAD_MATT_HEIGHT
140
250.0
  0
XRECORD
  5
EBC
102
{ACAD_REACTORS
330
D4A
102
}
330
D4A
100
AcDbXrecord
280
     1
 70
     2
 70
     0
 70
     0
 40
1.0
  2
DATA_UTWORZENIA
  1
Embedded Object
 10
31081.69912704907
 20
294.7951661888508
 30
0.0
 40
250.0
 41
4052.963831958745
 46
0.0
 71
     1
 72
     5
  1
2019-03-26
  7
Note Text (ISO)
 73
     1
 44
1.0
  0
XRECORD
  5
EBB
102
{ACAD_REACTORS
330
D4A
102
}
330
D4A
100
AcDbXrecord
280
     1
102
ACAD_MATT_HEIGHT
140
250.0
  0
XRECORD
  5
EBE
102
{ACAD_REACTORS
330
D4D
102
}
330
D4D
100
AcDbXrecord
280
     1
 70
     2
 70
     0
 70
     0
 40
1.0
  2
Nazwa
  1
Embedded Object
 10
29900.0
 20
649.9999999999999
 30
0.0
 40
250.0
 41
3863.2931107587
 46
0.0
 71
     1
 72
     5
  1

  7
Note Text (ISO)
 73
     1
 44
1.0
  0
XRECORD
  5
EBD
102
{ACAD_REACTORS
330
D4D
102
}
330
D4D
100
AcDbXrecord
280
     1
102
ACAD_MATT_HEIGHT
140
250.0
  0
LAYOUT
  5
6B
102
{ACAD_XDICTIONARY
360
EF5
102
}
102
{ACAD_REACTORS
330
62
102
}
330
62
100
AcDbPlotSettings
  1

  2

  4

  6

 40
0.0
 41
0.0
 42
0.0
 43
0.0
 44
0.0
 45
0.0
 46
0.0
 47
0.0
 48
0.0
 49
0.0
140
0.0
141
0.0
142
1.0
143
1.0
 70
   688
 72
     0
 73
     0
 74
     5
  7

 75
    16
147
1.0
148
0.0
149
0.0
100
AcDbLayout
  1
Layout1
 70
     1
 71
     1
 10
0.0
 20
0.0
 11
29700.0
 21
21000.0
 12
0.0
 22
0.0
 32
0.0
 14
0.0
 24
0.0
 34
0.0
 15
29700.0
 25
21000.0
 35
0.0
146
0.0
 13
0.0
 23
0.0
 33
0.0
 16
1.0
 26
0.0
 36
0.0
 17
0.0
 27
1.0
 37
0.0
 76
     0
330
68
  0
LAYOUT
  5
73
102
{ACAD_XDICTIONARY
360
EF9
102
}
102
{ACAD_REACTORS
330
62
102
}
330
62
100
AcDbPlotSettings
  1

  2

  4

  6

 40
0.0
 41
0.0
 42
0.0
 43
0.0
 44
0.0
 45
0.0
 46
0.0
 47
0.0
 48
0.0
 49
0.0
140
0.0
141
0.0
142
1.0
143
1.0
 70
   688
 72
     0
 73
     0
 74
     5
  7

 75
    16
147
1.0
148
0.0
149
0.0
100
AcDbLayout
  1
Layout2
 70
     1
 71
     2
 10
0.0
 20
0.0
 11
12.0
 21
9.0
 12
0.0
 22
0.0
 32
0.0
 14
0.0
 24
0.0
 34
0.0
 15
0.0
 25
0.0
 35
0.0
146
0.0
 13
0.0
 23
0.0
 33
0.0
 16
1.0
 26
0.0
 36
0.0
 17
0.0
 27
1.0
 37
0.0
 76
     0
330
70
  0
LAYOUT
  5
6F
102
{ACAD_XDICTIONARY
360
EF7
102
}
102
{ACAD_REACTORS
330
62
102
}
330
62
100
AcDbPlotSettings
  1

  2

  4

  6

 40
0.0
 41
0.0
 42
0.0
 43
0.0
 44
0.0
 45
0.0
 46
0.0
 47
0.0
 48
0.0
 49
0.0
140
0.0
141
0.0
142
1.0
143
1.0
 70
  1712
 72
     0
 73
     0
 74
     0
  7

 75
     0
147
1.0
148
0.0
149
0.0
100
AcDbLayout
  1
Model
 70
     1
 71
     0
 10
0.0
 20
0.0
 11
12.0
 21
9.0
 12
0.0
 22
0.0
 32
0.0
 14
0.0
 24
0.0
 34
0.0
 15
0.0
 25
0.0
 35
0.0
146
0.0
 13
0.0
 23
0.0
 33
0.0
 16
1.0
 26
0.0
 36
0.0
 17
0.0
 27
1.0
 37
0.0
 76
     0
330
6C
331
57
  0
MATERIAL
  5
19
102
{ACAD_XDICTIONARY
360
1A
102
}
102
{ACAD_REACTORS
330
10
102
}
330
10
100
AcDbMaterial
  1
ByBlock
 72
     0
 43
0.0208333333333333
 43
0.0
 43
0.0
 43
0.0
 43
0.0
 43
0.0208333333333333
 43
0.0
 43
0.0
 43
0.0
 43
0.0
 43
1.0
 43
0.0
 43
0.0
 43
0.0
 43
0.0
 43
1.0
 77
     0
 47
0.0208333333333333
 47
0.0
 47
0.0
 47
0.0
 47
0.0
 47
0.0208333333333333
 47
0.0
 47
0.0
 47
0.0
 47
0.0
 47
1.0
 47
0.0
 47
0.0
 47
0.0
 47
0.0
 47
1.0
171
     0
 49
0.0208333333333333
 49
0.0
 49
0.0
 49
0.0
 49
0.0
 49
0.0208333333333333
 49
0.0
 49
0.0
 49
0.0
 49
0.0
 49
1.0
 49
0.0
 49
0.0
 49
0.0
 49
0.0
 49
1.0
175
     0
142
0.0208333333333333
142
0.0
142
0.0
142
0.0
142
0.0
142
0.0208333333333333
142
0.0
142
0.0
142
0.0
142
0.0
142
1.0
142
0.0
142
0.0
142
0.0
142
0.0
142
1.0
179
     0
144
0.0208333333333333
144
0.0
144
0.0
144
0.0
144
0.0
144
0.0208333333333333
144
0.0
144
0.0
144
0.0
144
0.0
144
1.0
144
0.0
144
0.0
144
0.0
144
0.0
144
1.0
147
0.0208333333333333
147
0.0
147
0.0
147
0.0
147
0.0
147
0.0208333333333333
147
0.0
147
0.0
147
0.0
147
0.0
147
1.0
147
0.0
147
0.0
147
0.0
147
0.0
147
1.0
  0
MATERIAL
  5
11
102
{ACAD_XDICTIONARY
360
12
102
}
102
{ACAD_REACTORS
330
10
102
}
330
10
100
AcDbMaterial
  1
ByLayer
 72
     0
 43
0.0208333333333333
 43
0.0
 43
0.0
 43
0.0
 43
0.0
 43
0.0208333333333333
 43
0.0
 43
0.0
 43
0.0
 43
0.0
 43
1.0
 43
0.0
 43
0.0
 43
0.0
 43
0.0
 43
1.0
 77
     0
 47
0.0208333333333333
 47
0.0
 47
0.0
 47
0.0
 47
0.0
 47
0.0208333333333333
 47
0.0
 47
0.0
 47
0.0
 47
0.0
 47
1.0
 47
0.0
 47
0.0
 47
0.0
 47
0.0
 47
1.0
171
     0
 49
0.0208333333333333
 49
0.0
 49
0.0
 49
0.0
 49
0.0
 49
0.0208333333333333
 49
0.0
 49
0.0
 49
0.0
 49
0.0
 49
1.0
 49
0.0
 49
0.0
 49
0.0
 49
0.0
 49
1.0
175
     0
142
0.0208333333333333
142
0.0
142
0.0
142
0.0
142
0.0
142
0.0208333333333333
142
0.0
142
0.0
142
0.0
142
0.0
142
1.0
142
0.0
142
0.0
142
0.0
142
0.0
142
1.0
179
     0
144
0.0208333333333333
144
0.0
144
0.0
144
0.0
144
0.0
144
0.0208333333333333
144
0.0
144
0.0
144
0.0
144
0.0
144
1.0
144
0.0
144
0.0
144
0.0
144
0.0
144
1.0
147
0.0208333333333333
147
0.0
147
0.0
147
0.0
147
0.0
147
0.0208333333333333
147
0.0
147
0.0
147
0.0
147
0.0
147
1.0
147
0.0
147
0.0
147
0.0
147
0.0
147
1.0
  0
MATERIAL
  5
21
102
{ACAD_XDICTIONARY
360
22
102
}
102
{ACAD_REACTORS
330
10
102
}
330
10
100
AcDbMaterial
  1
Global
 72
     0
 43
0.0208333333333333
 43
0.0
 43
0.0
 43
0.0
 43
0.0
 43
0.0208333333333333
 43
0.0
 43
0.0
 43
0.0
 43
0.0
 43
1.0
 43
0.0
 43
0.0
 43
0.0
 43
0.0
 43
1.0
 77
     0
 47
0.0208333333333333
 47
0.0
 47
0.0
 47
0.0
 47
0.0
 47
0.0208333333333333
 47
0.0
 47
0.0
 47
0.0
 47
0.0
 47
1.0
 47
0.0
 47
0.0
 47
0.0
 47
0.0
 47
1.0
171
     0
 49
0.0208333333333333
 49
0.0
 49
0.0
 49
0.0
 49
0.0
 49
0.0208333333333333
 49
0.0
 49
0.0
 49
0.0
 49
0.0
 49
1.0
 49
0.0
 49
0.0
 49
0.0
 49
0.0
 49
1.0
175
     0
142
0.0208333333333333
142
0.0
142
0.0
142
0.0
142
0.0
142
0.0208333333333333
142
0.0
142
0.0
142
0.0
142
0.0
142
1.0
142
0.0
142
0.0
142
0.0
142
0.0
142
1.0
179
     0
144
0.0208333333333333
144
0.0
144
0.0
144
0.0
144
0.0
144
0.0208333333333333
144
0.0
144
0.0
144
0.0
144
0.0
144
1.0
144
0.0
144
0.0
144
0.0
144
0.0
144
1.0
147
0.0208333333333333
147
0.0
147
0.0
147
0.0
147
0.0
147
0.0208333333333333
147
0.0
147
0.0
147
0.0
147
0.0
147
1.0
147
0.0
147
0.0
147
0.0
147
0.0
147
1.0
  0
MLEADERSTYLE
  5
67
102
{ACAD_REACTORS
330
66
102
}
330
66
100
AcDbMLeaderStyle
170
     2
171
     1
172
     0
 90
        2
 40
0.0
 41
0.0
173
     1
 91
-1056964608
340
5B
 92
       -2
290
     1
 42
0.09
291
     1
 43
0.36
  3
Standard
 44
0.18
300

342
55
174
     1
178
     6
175
     1
176
     0
 93
-1056964608
 45
0.18
292
     0
297
     0
 46
0.18
 94
-1056964608
 47
1.0
 49
1.0
140
1.0
293
     1
141
0.0
294
     1
177
     0
142
1.0
295
     0
296
     0
143
0.125
1001
ACAD_MLEADERVER
1070
     2
  0
MLINESTYLE
  5
60
102
{ACAD_REACTORS
330
5F
102
}
330
5F
100
AcDbMlineStyle
  2
STANDARD
 70
     0
  3

 62
   256
 51
90.0
 52
90.0
 71
     2
 49
0.5
 62
   256
  6
BYLAYER
 49
-0.5
 62
   256
  6
BYLAYER
  0
ACDBPLACEHOLDER
  5
F
102
{ACAD_REACTORS
330
E
102
}
330
E
  0
SCALE
  5
43
102
{ACAD_REACTORS
330
42
102
}
330
42
100
AcDbScale
 70
     0
300
1:1
140
1.0
141
1.0
290
     1
  0
SCALE
  5
44
102
{ACAD_REACTORS
330
42
102
}
330
42
100
AcDbScale
 70
     0
300
1/128" = 1'-0"
140
0.0078125
141
12.0
290
     0
  0
SCALE
  5
45
102
{ACAD_REACTORS
330
42
102
}
330
42
100
AcDbScale
 70
     0
300
1/64" = 1'-0"
140
0.015625
141
12.0
290
     0
  0
SCALE
  5
46
102
{ACAD_REACTORS
330
42
102
}
330
42
100
AcDbScale
 70
     0
300
1/32" = 1'-0"
140
0.03125
141
12.0
290
     0
  0
SCALE
  5
47
102
{ACAD_REACTORS
330
42
102
}
330
42
100
AcDbScale
 70
     0
300
1/16" = 1'-0"
140
0.0625
141
12.0
290
     0
  0
SCALE
  5
48
102
{ACAD_REACTORS
330
42
102
}
330
42
100
AcDbScale
 70
     0
300
3/32" = 1'-0"
140
0.09375
141
12.0
290
     0
  0
SCALE
  5
49
102
{ACAD_REACTORS
330
42
102
}
330
42
100
AcDbScale
 70
     0
300
1/8" = 1'-0"
140
0.125
141
12.0
290
     0
  0
SCALE
  5
4A
102
{ACAD_REACTORS
330
42
102
}
330
42
100
AcDbScale
 70
     0
300
3/16" = 1'-0"
140
0.1875
141
12.0
290
     0
  0
SCALE
  5
4B
102
{ACAD_REACTORS
330
42
102
}
330
42
100
AcDbScale
 70
     0
300
1/4" = 1'-0"
140
0.25
141
12.0
290
     0
  0
SCALE
  5
4C
102
{ACAD_REACTORS
330
42
102
}
330
42
100
AcDbScale
 70
     0
300
3/8" = 1'-0"
140
0.375
141
12.0
290
     0
  0
SCALE
  5
4D
102
{ACAD_REACTORS
330
42
102
}
330
42
100
AcDbScale
 70
     0
300
1/2" = 1'-0"
140
0.5
141
12.0
290
     0
  0
SCALE
  5
4E
102
{ACAD_REACTORS
330
42
102
}
330
42
100
AcDbScale
 70
     0
300
3/4" = 1'-0"
140
0.75
141
12.0
290
     0
  0
SCALE
  5
4F
102
{ACAD_REACTORS
330
42
102
}
330
42
100
AcDbScale
 70
     0
300
1" = 1'-0"
140
1.0
141
12.0
290
     0
  0
SCALE
  5
50
102
{ACAD_REACTORS
330
42
102
}
330
42
100
AcDbScale
 70
     0
300
1-1/2" = 1'-0"
140
1.5
141
12.0
290
     0
  0
SCALE
  5
51
102
{ACAD_REACTORS
330
42
102
}
330
42
100
AcDbScale
 70
     0
300
3" = 1'-0"
140
3.0
141
12.0
290
     0
  0
SCALE
  5
52
102
{ACAD_REACTORS
330
42
102
}
330
42
100
AcDbScale
 70
     0
300
6" = 1'-0"
140
6.0
141
12.0
290
     0
  0
SCALE
  5
53
102
{ACAD_REACTORS
330
42
102
}
330
42
100
AcDbScale
 70
     0
300
1'-0" = 1'-0"
140
12.0
141
12.0
290
     0
  0
TABLESTYLE
  5
65
102
{ACAD_XDICTIONARY
360
D3C
102
}
102
{ACAD_REACTORS
330
64
102
}
330
64
100
AcDbTableStyle
  3
Standard
 70
     0
 71
     0
 40
0.06
 41
0.06
280
     0
281
     0
  7
Standard
140
0.18
170
     2
 62
     0
 63
     7
283
     0
274
    -2
284
     1
 64
     0
275
    -2
285
     1
 65
     0
276
    -2
286
     1
 66
     0
277
    -2
287
     1
 67
     0
278
    -2
288
     1
 68
     0
279
    -2
289
     1
 69
     0
  7
Standard
140
0.25
170
     5
 62
     0
 63
     7
283
     0
274
    -2
284
     1
 64
     0
275
    -2
285
     1
 65
     0
276
    -2
286
     1
 66
     0
277
    -2
287
     1
 67
     0
278
    -2
288
     1
 68
     0
279
    -2
289
     1
 69
     0
  7
Standard
140
0.18
170
     5
 62
     0
 63
     7
283
     0
274
    -2
284
     1
 64
     0
275
    -2
285
     1
 65
     0
276
    -2
286
     1
 66
     0
277
    -2
287
     1
 67
     0
278
    -2
288
     1
 68
     0
279
    -2
289
     1
 69
     0
  0
VISUALSTYLE
  5
2F
102
{ACAD_XDICTIONARY
360
ECE
102
}
102
{ACAD_REACTORS
330
29
102
}
330
29
100
AcDbVisualStyle
  2
2dWireframe
 70
     4
 71
     0
 72
     2
 73
     0
 90
        0
 40
-0.6
 41
-30.0
 62
     5
 63
     7
 74
     1
 91
        4
 64
     7
 65
   257
 75
     1
175
     1
 42
1.0
 92
        0
 66
   257
 43
1.0
 76
     1
 77
     6
 78
     2
 67
     7
 79
     5
170
     0
171
     0
290
     0
174
     0
 93
        1
 44
0.0
173
     0
291
     0
 45
0.0
1001
ACAD
1000
AcDbSavedByObjectVersion
1070
     0
  0
VISUALSTYLE
  5
2E
102
{ACAD_XDICTIONARY
360
ECC
102
}
102
{ACAD_REACTORS
330
29
102
}
330
29
100
AcDbVisualStyle
  2
Basic
 70
     7
 71
     1
 72
     0
 73
     1
 90
        0
 40
-0.6
 41
-30.0
 62
     5
 63
     7
 74
     0
 91
        4
 64
     7
 65
   257
 75
     1
175
     1
 42
1.0
 92
        8
 66
     7
 43
1.0
 76
     1
 77
     6
 78
     2
 67
     7
 79
     5
170
     0
171
     0
290
     0
174
     0
 93
        1
 44
0.0
173
     0
291
     1
 45
0.0
1001
ACAD
1000
AcDbSavedByObjectVersion
1070
     0
  0
VISUALSTYLE
  5
35
102
{ACAD_XDICTIONARY
360
EDA
102
}
102
{ACAD_REACTORS
330
29
102
}
330
29
100
AcDbVisualStyle
  2
Brighten
 70
    12
 71
     2
 72
     2
 73
     0
 90
        0
 40
-0.6
 41
-30.0
 62
     5
 63
     7
 74
     1
 91
        4
 64
     7
 65
   257
 75
     1
175
     1
 42
1.0
 92
        8
 66
     7
 43
1.0
 76
     1
 77
     6
 78
     2
 67
     7
 79
     5
170
     0
171
     0
290
     0
174
     0
 93
        1
 44
50.0
173
     0
291
     1
 45
0.0
1001
ACAD
1000
AcDbSavedByObjectVersion
1070
     0
  0
VISUALSTYLE
  5
39
102
{ACAD_XDICTIONARY
360
EE2
102
}
102
{ACAD_REACTORS
330
29
102
}
330
29
100
AcDbVisualStyle
  2
ColorChange
 70
    16
 71
     2
 72
     2
 73
     3
 90
        0
 40
-0.6
 41
-30.0
 62
     5
 63
     8
 74
     1
 91
        4
 64
     7
 65
   257
 75
     1
175
     1
 42
1.0
 92
        8
 66
     8
 43
1.0
 76
     1
 77
     6
 78
     2
 67
     7
 79
     5
170
     0
171
     0
290
     0
174
     0
 93
        1
 44
0.0
173
     0
291
     1
 45
0.0
1001
ACAD
1000
AcDbSavedByObjectVersion
1070
     0
  0
VISUALSTYLE
  5
32
102
{ACAD_XDICTIONARY
360
ED4
102
}
102
{ACAD_REACTORS
330
29
102
}
330
29
100
AcDbVisualStyle
  2
Conceptual
 70
     9
 71
     3
 72
     2
 73
     0
 90
        0
 40
-0.6
 41
-30.0
 62
     5
 63
     7
 74
     2
 91
        2
 64
     7
 65
   257
 75
     1
175
     1
 42
179.0
 92
        8
 66
     7
 43
1.0
 76
     1
 77
     6
 78
     2
 67
     7
 79
     3
170
     0
171
     0
290
     0
174
     0
 93
        1
 44
0.0
173
     0
291
     0
 45
0.0
1001
ACAD
1000
AcDbSavedByObjectVersion
1070
     0
  0
VISUALSTYLE
  5
34
102
{ACAD_XDICTIONARY
360
ED8
102
}
102
{ACAD_REACTORS
330
29
102
}
330
29
100
AcDbVisualStyle
  2
Dim
 70
    11
 71
     2
 72
     2
 73
     0
 90
        0
 40
-0.6
 41
-30.0
 62
     5
 63
     7
 74
     1
 91
        4
 64
     7
 65
   257
 75
     1
175
     1
 42
1.0
 92
        8
 66
     7
 43
1.0
 76
     1
 77
     6
 78
     2
 67
     7
 79
     5
170
     0
171
     0
290
     0
174
     0
 93
        1
 44
-50.0
173
     0
291
     1
 45
0.0
1001
ACAD
1000
AcDbSavedByObjectVersion
1070
     0
  0
VISUALSTYLE
  5
41
102
{ACAD_XDICTIONARY
360
EF2
102
}
102
{ACAD_REACTORS
330
29
102
}
330
29
100
AcDbVisualStyle
  2
EdgeColorOff
 70
    22
 71
     2
 72
     2
 73
     0
 90
        0
 40
-0.6
 41
-30.0
 62
     5
 63
     7
 74
     1
 91
        4
 64
     7
 65
   257
 75
     1
175
     1
 42
1.0
 92
        8
 66
     7
 43
1.0
 76
     1
 77
     6
 78
     2
 67
     7
 79
     5
170
     0
171
     0
290
     0
174
     0
 93
        1
 44
0.0
173
     0
291
     1
 45
0.0
1001
ACAD
1000
AcDbSavedByObjectVersion
1070
     0
  0
VISUALSTYLE
  5
38
102
{ACAD_XDICTIONARY
360
EE0
102
}
102
{ACAD_REACTORS
330
29
102
}
330
29
100
AcDbVisualStyle
  2
Facepattern
 70
    15
 71
     2
 72
     2
 73
     0
 90
        0
 40
-0.6
 41
-30.0
 62
     5
 63
     7
 74
     1
 91
        4
 64
     7
 65
   257
 75
     1
175
     1
 42
1.0
 92
        8
 66
     7
 43
1.0
 76
     1
 77
     6
 78
     2
 67
     7
 79
     5
170
     0
171
     0
290
     0
174
     0
 93
        1
 44
0.0
173
     0
291
     1
 45
0.0
1001
ACAD
1000
AcDbSavedByObjectVersion
1070
     0
  0
VISUALSTYLE
  5
2A
102
{ACAD_XDICTIONARY
360
EC4
102
}
102
{ACAD_REACTORS
330
29
102
}
330
29
100
AcDbVisualStyle
  2
Flat
 70
     0
 71
     2
 72
     1
 73
     1
 90
        2
 40
-0.6
 41
30.0
 62
     5
 63
     7
 74
     0
 91
        0
 64
     7
 65
   257
 75
     1
175
     1
 42
1.0
 92
        8
 66
     7
 43
1.0
 76
     1
 77
     6
 78
     2
 67
     7
 79
     5
170
     0
171
     0
290
     0
174
     0
 93
       13
 44
0.0
173
     0
291
     1
 45
0.0
1001
ACAD
1000
AcDbSavedByObjectVersion
1070
     0
  0
VISUALSTYLE
  5
2B
102
{ACAD_XDICTIONARY
360
EC6
102
}
102
{ACAD_REACTORS
330
29
102
}
330
29
100
AcDbVisualStyle
  2
FlatWithEdges
 70
     1
 71
     2
 72
     1
 73
     1
 90
        2
 40
-0.6
 41
30.0
 62
     5
 63
     7
 74
     1
 91
        0
 64
     7
 65
   257
 75
     1
175
     1
 42
1.0
 92
        0
 66
   257
 43
1.0
 76
     1
 77
     6
 78
     2
 67
     7
 79
     5
170
     0
171
     0
290
     0
174
     0
 93
       13
 44
0.0
173
     0
291
     1
 45
0.0
1001
ACAD
1000
AcDbSavedByObjectVersion
1070
     0
  0
VISUALSTYLE
  5
2C
102
{ACAD_XDICTIONARY
360
EC8
102
}
102
{ACAD_REACTORS
330
29
102
}
330
29
100
AcDbVisualStyle
  2
Gouraud
 70
     2
 71
     2
 72
     2
 73
     1
 90
        2
 40
-0.6
 41
30.0
 62
     5
 63
     7
 74
     0
 91
        0
 64
     7
 65
   257
 75
     1
175
     1
 42
1.0
 92
        0
 66
     7
 43
1.0
 76
     1
 77
     6
 78
     2
 67
     7
 79
     5
170
     0
171
     0
290
     0
174
     0
 93
       13
 44
0.0
173
     0
291
     1
 45
0.0
1001
ACAD
1000
AcDbSavedByObjectVersion
1070
     0
  0
VISUALSTYLE
  5
2D
102
{ACAD_XDICTIONARY
360
ECA
102
}
102
{ACAD_REACTORS
330
29
102
}
330
29
100
AcDbVisualStyle
  2
GouraudWithEdges
 70
     3
 71
     2
 72
     2
 73
     1
 90
        2
 40
-0.6
 41
30.0
 62
     5
 63
     7
 74
     1
 91
        0
 64
     7
 65
   257
 75
     1
175
     1
 42
1.0
 92
        0
 66
   257
 43
1.0
 76
     1
 77
     6
 78
     2
 67
     7
 79
     5
170
     0
171
     0
290
     0
174
     0
 93
       13
 44
0.0
173
     0
291
     1
 45
0.0
1001
ACAD
1000
AcDbSavedByObjectVersion
1070
     0
  0
VISUALSTYLE
  5
31
102
{ACAD_XDICTIONARY
360
ED2
102
}
102
{ACAD_REACTORS
330
29
102
}
330
29
100
AcDbVisualStyle
  2
Hidden
 70
     6
 71
     1
 72
     2
 73
     2
 90
        0
 40
-0.6
 41
-30.0
 62
     5
 63
     7
 74
     2
 91
        2
 64
     7
 65
   257
 75
     2
175
     1
 42
40.0
 92
        0
 66
   257
 43
1.0
 76
     1
 77
     6
 78
     2
 67
     7
 79
     3
170
     0
171
     0
290
     0
174
     0
 93
        1
 44
0.0
173
     0
291
     0
 45
0.0
1001
ACAD
1000
AcDbSavedByObjectVersion
1070
     0
  0
VISUALSTYLE
  5
3F
102
{ACAD_XDICTIONARY
360
EEE
102
}
102
{ACAD_REACTORS
330
29
102
}
330
29
100
AcDbVisualStyle
  2
JitterOff
 70
    20
 71
     2
 72
     2
 73
     0
 90
        0
 40
-0.6
 41
-30.0
 62
     5
 63
     7
 74
     1
 91
        4
 64
     7
 65
   257
 75
     1
175
     1
 42
1.0
 92
       10
 66
     7
 43
1.0
 76
     1
 77
     6
 78
     2
 67
     7
 79
     5
170
     0
171
     0
290
     0
174
     0
 93
        1
 44
0.0
173
     0
291
     1
 45
0.0
1001
ACAD
1000
AcDbSavedByObjectVersion
1070
     0
  0
VISUALSTYLE
  5
37
102
{ACAD_XDICTIONARY
360
EDE
102
}
102
{ACAD_REACTORS
330
29
102
}
330
29
100
AcDbVisualStyle
  2
Linepattern
 70
    14
 71
     2
 72
     2
 73
     0
 90
        0
 40
-0.6
 41
-30.0
 62
     5
 63
     7
 74
     1
 91
        4
 64
     7
 65
   257
 75
     7
175
     7
 42
1.0
 92
        8
 66
     7
 43
1.0
 76
     1
 77
     6
 78
     2
 67
     7
 79
     5
170
     0
171
     0
290
     0
174
     0
 93
        1
 44
0.0
173
     0
291
     1
 45
0.0
1001
ACAD
1000
AcDbSavedByObjectVersion
1070
     0
  0
VISUALSTYLE
  5
40
102
{ACAD_XDICTIONARY
360
EF0
102
}
102
{ACAD_REACTORS
330
29
102
}
330
29
100
AcDbVisualStyle
  2
OverhangOff
 70
    21
 71
     2
 72
     2
 73
     0
 90
        0
 40
-0.6
 41
-30.0
 62
     5
 63
     7
 74
     1
 91
        4
 64
     7
 65
   257
 75
     1
175
     1
 42
1.0
 92
        9
 66
     7
 43
1.0
 76
     1
 77
     6
 78
     2
 67
     7
 79
     5
170
     0
171
     0
290
     0
174
     0
 93
        1
 44
0.0
173
     0
291
     1
 45
0.0
1001
ACAD
1000
AcDbSavedByObjectVersion
1070
     0
  0
VISUALSTYLE
  5
33
102
{ACAD_XDICTIONARY
360
ED6
102
}
102
{ACAD_REACTORS
330
29
102
}
330
29
100
AcDbVisualStyle
  2
Realistic
 70
     8
 71
     2
 72
     2
 73
     0
 90
        2
 40
-0.6
 41
30.0
 62
     5
 63
     7
 74
     0
 91
        0
 64
     7
 65
   257
 75
     1
175
     1
 42
1.0
 92
        8
 66
   257
 43
1.0
 76
     1
 77
     6
 78
     2
 67
     7
 79
     3
170
     0
171
     0
290
     0
174
     0
 93
       13
 44
0.0
173
     0
291
     0
 45
0.0
1001
ACAD
1000
AcDbSavedByObjectVersion
1070
     0
  0
VISUALSTYLE
  5
3E
102
{ACAD_XDICTIONARY
360
EEC
102
}
102
{ACAD_REACTORS
330
29
102
}
330
29
100
AcDbVisualStyle
  2
Shaded
 70
    27
 71
     2
 72
     2
 73
     1
 90
        2
 40
-0.6
 41
30.0
 62
     5
 63
     7
 74
     0
 91
        4
 64
     7
 65
   257
 75
     1
175
     1
 42
1.0
 92
        8
 66
   257
 43
1.0
 76
     1
 77
     6
 78
     2
 67
     8
 79
     3
170
     0
171
     0
290
     0
174
     0
 93
        5
 44
0.0
173
     0
291
     0
 45
0.0
1001
ACAD
1000
AcDbSavedByObjectVersion
1070
     0
  0
VISUALSTYLE
  5
3D
102
{ACAD_XDICTIONARY
360
EEA
102
}
102
{ACAD_REACTORS
330
29
102
}
330
29
100
AcDbVisualStyle
  2
Shaded with edges
 70
    26
 71
     2
 72
     2
 73
     1
 90
        2
 40
-0.6
 41
30.0
 62
     5
 63
     7
 74
     1
 91
       10
 64
     7
 65
   257
 75
     2
175
     1
 42
1.0
 92
        8
 66
   257
 43
1.0
 76
     1
 77
     6
 78
     2
 67
     7
 79
     3
170
     0
171
     0
290
     0
174
     0
 93
        5
 44
0.0
173
     0
291
     0
 45
0.0
1001
ACAD
1000
AcDbSavedByObjectVersion
1070
     0
  0
VISUALSTYLE
  5
3A
102
{ACAD_XDICTIONARY
360
EE4
102
}
102
{ACAD_REACTORS
330
29
102
}
330
29
100
AcDbVisualStyle
  2
Shades of Gray
 70
    23
 71
     2
 72
     2
 73
     3
 90
        0
 40
-0.6
 41
-30.0
 62
     5
 63
     7
 74
     2
 91
        2
 64
     7
 65
     7
 75
     1
175
     1
 42
40.0
 92
        8
 66
     7
 43
1.0
 76
     1
 77
     6
 78
     2
 67
     7
 79
     3
170
     0
171
     0
290
     0
174
     0
 93
        1
 44
0.0
173
     0
291
     0
 45
0.0
1001
ACAD
1000
AcDbSavedByObjectVersion
1070
     0
  0
VISUALSTYLE
  5
3B
102
{ACAD_XDICTIONARY
360
EE6
102
}
102
{ACAD_REACTORS
330
29
102
}
330
29
100
AcDbVisualStyle
  2
Sketchy
 70
    24
 71
     1
 72
     2
 73
     2
 90
        0
 40
-0.6
 41
-30.0
 62
     5
 63
     7
 74
     2
 91
        2
 64
     7
 65
     7
 75
     1
175
     1
 42
40.0
 92
       11
 66
     7
 43
1.0
 76
     1
 77
     6
 78
     2
 67
     7
 79
     6
170
     0
171
     0
290
     0
174
     0
 93
        1
 44
0.0
173
     0
291
     0
 45
0.0
1001
ACAD
1000
AcDbSavedByObjectVersion
1070
     0
  0
VISUALSTYLE
  5
36
102
{ACAD_XDICTIONARY
360
EDC
102
}
102
{ACAD_REACTORS
330
29
102
}
330
29
100
AcDbVisualStyle
  2
Thicken
 70
    13
 71
     2
 72
     2
 73
     0
 90
        0
 40
-0.6
 41
-30.0
 62
     5
 63
     7
 74
     1
 91
        4
 64
     7
 65
   257
 75
     1
175
     1
 42
1.0
 92
       12
 66
     7
 43
1.0
 76
     1
 77
     6
 78
     2
 67
     7
 79
     5
170
     0
171
     0
290
     0
174
     0
 93
        1
 44
0.0
173
     0
291
     1
 45
0.0
1001
ACAD
1000
AcDbSavedByObjectVersion
1070
     0
  0
VISUALSTYLE
  5
30
102
{ACAD_XDICTIONARY
360
ED0
102
}
102
{ACAD_REACTORS
330
29
102
}
330
29
100
AcDbVisualStyle
  2
Wireframe
 70
     5
 71
     0
 72
     2
 73
     0
 90
        0
 40
-0.6
 41
-30.0
 62
     5
 63
     7
 74
     1
 91
        4
 64
     7
 65
   257
 75
     1
175
     1
 42
1.0
 92
        0
 66
   257
 43
1.0
 76
     1
 77
     6
 78
     2
 67
     7
 79
     3
170
     0
171
     0
290
     0
174
     0
 93
        1
 44
0.0
173
     0
291
     0
 45
0.0
1001
ACAD
1000
AcDbSavedByObjectVersion
1070
     0
  0
VISUALSTYLE
  5
3C
102
{ACAD_XDICTIONARY
360
EE8
102
}
102
{ACAD_REACTORS
330
29
102
}
330
29
100
AcDbVisualStyle
  2
X-Ray
 70
    25
 71
     2
 72
     2
 73
     1
 90
        1
 40
0.5
 41
-30.0
 62
     5
 63
     7
 74
     1
 91
        0
 64
     7
 65
   257
 75
     1
175
     1
 42
1.0
 92
        8
 66
     7
 43
1.0
 76
     1
 77
     6
 78
     2
 67
     7
 79
     3
170
     0
171
     0
290
     0
174
     0
 93
       13
 44
0.0
173
     0
291
     0
 45
0.0
1001
ACAD
1000
AcDbSavedByObjectVersion
1070
     0
  0
DICTIONARYVAR
  5
D97
102
{ACAD_REACTORS
330
D93
102
}
330
D93
100
DictionaryVariables
280
     0
  1
1:1
  0
DICTIONARYVAR
  5
D95
102
{ACAD_REACTORS
330
D93
102
}
330
D93
100
DictionaryVariables
280
     0
  1
STANDARD
  0
DICTIONARYVAR
  5
D94
102
{ACAD_REACTORS
330
D93
102
}
330
D93
100
DictionaryVariables
280
     0
  1
STANDARD
  0
DICTIONARYVAR
  5
D9E
102
{ACAD_REACTORS
330
D93
102
}
330
D93
100
DictionaryVariables
280
     0
  1
1
  0
DICTIONARYVAR
  5
D9D
102
{ACAD_REACTORS
330
D93
102
}
330
D93
100
DictionaryVariables
280
     0
  1
1
  0
DICTIONARYVAR
  5
D9C
102
{ACAD_REACTORS
330
D93
102
}
330
D93
100
DictionaryVariables
280
     0
  1
0
  0
DICTIONARYVAR
  5
D99
102
{ACAD_REACTORS
330
D93
102
}
330
D93
100
DictionaryVariables
280
     0
  1
0
  0
DICTIONARYVAR
  5
D9A
102
{ACAD_REACTORS
330
D93
102
}
330
D93
100
DictionaryVariables
280
     0
  1
0
  0
DICTIONARYVAR
  5
D98
102
{ACAD_REACTORS
330
D93
102
}
330
D93
100
DictionaryVariables
280
     0
  1
2
  0
DICTIONARYVAR
  5
D96
102
{ACAD_REACTORS
330
D93
102
}
330
D93
100
DictionaryVariables
280
     0
  1
1
  0
DICTIONARYVAR
  5
D9B
102
{ACAD_REACTORS
330
D93
102
}
330
D93
100
DictionaryVariables
280
     0
  1
127
  0
DICTIONARYVAR
  5
EB1
102
{ACAD_REACTORS
330
D93
102
}
330
D93
100
DictionaryVariables
280
     0
  1
2
  0
DICTIONARY
  5
EF5
330
6B
100
AcDbDictionary
280
     1
281
     1
  3
ACAD_XREC_ROUNDTRIP
360
EF6
  0
DICTIONARY
  5
EF9
330
73
100
AcDbDictionary
280
     1
281
     1
  3
ACAD_XREC_ROUNDTRIP
360
EFA
  0
DICTIONARY
  5
EF7
330
6F
100
AcDbDictionary
280
     1
281
     1
  3
ACAD_XREC_ROUNDTRIP
360
EF8
  0
DICTIONARY
  5
1A
330
19
100
AcDbDictionary
280
     1
281
     1
  3
ACAD_XREC_ROUNDTRIP
360
EC2
  3
BUMPTILE
360
1C
  3
DIFFUSETILE
360
1B
  3
OPACITYTILE
360
1F
  3
REFLECTIONTILE
360
1E
  3
REFRACTIONTILE
360
20
  3
SPECULARTILE
360
1D
  0
DICTIONARY
  5
12
330
11
100
AcDbDictionary
280
     1
281
     1
  3
ACAD_XREC_ROUNDTRIP
360
EC1
  3
BUMPTILE
360
14
  3
DIFFUSETILE
360
13
  3
OPACITYTILE
360
17
  3
REFLECTIONTILE
360
16
  3
REFRACTIONTILE
360
18
  3
SPECULARTILE
360
15
  0
DICTIONARY
  5
22
330
21
100
AcDbDictionary
280
     1
281
     1
  3
ACAD_XREC_ROUNDTRIP
360
EC3
  3
BUMPTILE
360
24
  3
DIFFUSETILE
360
23
  3
OPACITYTILE
360
27
  3
REFLECTIONTILE
360
26
  3
REFRACTIONTILE
360
28
  3
SPECULARTILE
360
25
  0
DICTIONARY
  5
D3C
330
65
100
AcDbDictionary
280
     1
281
     1
  3
ACAD_ROUNDTRIP_2008_TABLESTYLE_CELLSTYLEMAP
360
EB2
  3
ACAD_XREC_ROUNDTRIP
360
EF4
  0
DICTIONARY
  5
ECE
330
2F
100
AcDbDictionary
280
     1
281
     1
  3
ACAD_XREC_ROUNDTRIP
360
ECF
  0
DICTIONARY
  5
ECC
330
2E
100
AcDbDictionary
280
     1
281
     1
  3
ACAD_XREC_ROUNDTRIP
360
ECD
  0
DICTIONARY
  5
EDA
330
35
100
AcDbDictionary
280
     1
281
     1
  3
ACAD_XREC_ROUNDTRIP
360
EDB
  0
DICTIONARY
  5
EE2
330
39
100
AcDbDictionary
280
     1
281
     1
  3
ACAD_XREC_ROUNDTRIP
360
EE3
  0
DICTIONARY
  5
ED4
330
32
100
AcDbDictionary
280
     1
281
     1
  3
ACAD_XREC_ROUNDTRIP
360
ED5
  0
DICTIONARY
  5
ED8
330
34
100
AcDbDictionary
280
     1
281
     1
  3
ACAD_XREC_ROUNDTRIP
360
ED9
  0
DICTIONARY
  5
EF2
330
41
100
AcDbDictionary
280
     1
281
     1
  3
ACAD_XREC_ROUNDTRIP
360
EF3
  0
DICTIONARY
  5
EE0
330
38
100
AcDbDictionary
280
     1
281
     1
  3
ACAD_XREC_ROUNDTRIP
360
EE1
  0
DICTIONARY
  5
EC4
330
2A
100
AcDbDictionary
280
     1
281
     1
  3
ACAD_XREC_ROUNDTRIP
360
EC5
  0
DICTIONARY
  5
EC6
330
2B
100
AcDbDictionary
280
     1
281
     1
  3
ACAD_XREC_ROUNDTRIP
360
EC7
  0
DICTIONARY
  5
EC8
330
2C
100
AcDbDictionary
280
     1
281
     1
  3
ACAD_XREC_ROUNDTRIP
360
EC9
  0
DICTIONARY
  5
ECA
330
2D
100
AcDbDictionary
280
     1
281
     1
  3
ACAD_XREC_ROUNDTRIP
360
ECB
  0
DICTIONARY
  5
ED2
330
31
100
AcDbDictionary
280
     1
281
     1
  3
ACAD_XREC_ROUNDTRIP
360
ED3
  0
DICTIONARY
  5
EEE
330
3F
100
AcDbDictionary
280
     1
281
     1
  3
ACAD_XREC_ROUNDTRIP
360
EEF
  0
DICTIONARY
  5
EDE
330
37
100
AcDbDictionary
280
     1
281
     1
  3
ACAD_XREC_ROUNDTRIP
360
EDF
  0
DICTIONARY
  5
EF0
330
40
100
AcDbDictionary
280
     1
281
     1
  3
ACAD_XREC_ROUNDTRIP
360
EF1
  0
DICTIONARY
  5
ED6
330
33
100
AcDbDictionary
280
     1
281
     1
  3
ACAD_XREC_ROUNDTRIP
360
ED7
  0
DICTIONARY
  5
EEC
330
3E
100
AcDbDictionary
280
     1
281
     1
  3
ACAD_XREC_ROUNDTRIP
360
EED
  0
DICTIONARY
  5
EEA
330
3D
100
AcDbDictionary
280
     1
281
     1
  3
ACAD_XREC_ROUNDTRIP
360
EEB
  0
DICTIONARY
  5
EE4
330
3A
100
AcDbDictionary
280
     1
281
     1
  3
ACAD_XREC_ROUNDTRIP
360
EE5
  0
DICTIONARY
  5
EE6
330
3B
100
AcDbDictionary
280
     1
281
     1
  3
ACAD_XREC_ROUNDTRIP
360
EE7
  0
DICTIONARY
  5
EDC
330
36
100
AcDbDictionary
280
     1
281
     1
  3
ACAD_XREC_ROUNDTRIP
360
EDD
  0
DICTIONARY
  5
ED0
330
30
100
AcDbDictionary
280
     1
281
     1
  3
ACAD_XREC_ROUNDTRIP
360
ED1
  0
DICTIONARY
  5
EE8
330
3C
100
AcDbDictionary
280
     1
281
     1
  3
ACAD_XREC_ROUNDTRIP
360
EE9
  0
XRECORD
  5
EF6
102
{ACAD_REACTORS
330
EF5
102
}
330
EF5
100
AcDbXrecord
280
     1
102
SHADEPLOT
 70
     0
102
SHADEPLOTRESLEVEL
 70
     2
102
SHADEPLOTCUSTOMDPI
 70
   300
  0
XRECORD
  5
EFA
102
{ACAD_REACTORS
330
EF9
102
}
330
EF9
100
AcDbXrecord
280
     1
102
SHADEPLOT
 70
     0
102
SHADEPLOTRESLEVEL
 70
     2
102
SHADEPLOTCUSTOMDPI
 70
   300
  0
XRECORD
  5
EF8
102
{ACAD_REACTORS
330
EF7
102
}
330
EF7
100
AcDbXrecord
280
     1
102
SHADEPLOT
 70
     0
102
SHADEPLOTRESLEVEL
 70
     2
102
SHADEPLOTCUSTOMDPI
 70
   300
  0
XRECORD
  5
EC2
102
{ACAD_REACTORS
330
1A
102
}
330
1A
100
AcDbXrecord
280
     1
102
MATERIAL
148
0.0
149
0.0
149
0.0
 93
        0
 94
      127
282
     0
 72
     0
 77
     0
171
     0
175
     0
179
     0
273
     0
  0
XRECORD
  5
1C
102
{ACAD_REACTORS
330
1A
102
}
330
1A
100
AcDbXrecord
280
     1
270
     1
271
     1
  0
XRECORD
  5
1B
102
{ACAD_REACTORS
330
1A
102
}
330
1A
100
AcDbXrecord
280
     1
270
     1
271
     1
  0
XRECORD
  5
1F
102
{ACAD_REACTORS
330
1A
102
}
330
1A
100
AcDbXrecord
280
     1
270
     1
271
     1
  0
XRECORD
  5
1E
102
{ACAD_REACTORS
330
1A
102
}
330
1A
100
AcDbXrecord
280
     1
270
     1
271
     1
  0
XRECORD
  5
20
102
{ACAD_REACTORS
330
1A
102
}
330
1A
100
AcDbXrecord
280
     1
270
     1
271
     1
  0
XRECORD
  5
1D
102
{ACAD_REACTORS
330
1A
102
}
330
1A
100
AcDbXrecord
280
     1
270
     1
271
     1
  0
XRECORD
  5
EC1
102
{ACAD_REACTORS
330
12
102
}
330
12
100
AcDbXrecord
280
     1
102
MATERIAL
148
0.0
149
0.0
149
0.0
 93
        0
 94
      127
282
     0
 72
     0
 77
     0
171
     0
175
     0
179
     0
273
     0
  0
XRECORD
  5
14
102
{ACAD_REACTORS
330
12
102
}
330
12
100
AcDbXrecord
280
     1
270
     1
271
     1
  0
XRECORD
  5
13
102
{ACAD_REACTORS
330
12
102
}
330
12
100
AcDbXrecord
280
     1
270
     1
271
     1
  0
XRECORD
  5
17
102
{ACAD_REACTORS
330
12
102
}
330
12
100
AcDbXrecord
280
     1
270
     1
271
     1
  0
XRECORD
  5
16
102
{ACAD_REACTORS
330
12
102
}
330
12
100
AcDbXrecord
280
     1
270
     1
271
     1
  0
XRECORD
  5
18
102
{ACAD_REACTORS
330
12
102
}
330
12
100
AcDbXrecord
280
     1
270
     1
271
     1
  0
XRECORD
  5
15
102
{ACAD_REACTORS
330
12
102
}
330
12
100
AcDbXrecord
280
     1
270
     1
271
     1
  0
XRECORD
  5
EC3
102
{ACAD_REACTORS
330
22
102
}
330
22
100
AcDbXrecord
280
     1
102
MATERIAL
148
0.0
149
0.0
149
0.0
 93
        0
 94
      127
282
     0
 72
     0
 77
     0
171
     0
175
     0
179
     0
273
     0
  0
XRECORD
  5
24
102
{ACAD_REACTORS
330
22
102
}
330
22
100
AcDbXrecord
280
     1
270
     1
271
     1
  0
XRECORD
  5
23
102
{ACAD_REACTORS
330
22
102
}
330
22
100
AcDbXrecord
280
     1
270
     1
271
     1
  0
XRECORD
  5
27
102
{ACAD_REACTORS
330
22
102
}
330
22
100
AcDbXrecord
280
     1
270
     1
271
     1
  0
XRECORD
  5
26
102
{ACAD_REACTORS
330
22
102
}
330
22
100
AcDbXrecord
280
     1
270
     1
271
     1
  0
XRECORD
  5
28
102
{ACAD_REACTORS
330
22
102
}
330
22
100
AcDbXrecord
280
     1
270
     1
271
     1
  0
XRECORD
  5
25
102
{ACAD_REACTORS
330
22
102
}
330
22
100
AcDbXrecord
280
     1
270
     1
271
     1
  0
CELLSTYLEMAP
  5
EB2
102
{ACAD_REACTORS
330
D3C
102
}
330
D3C
100
AcDbCellStyleMap
 90
        3
300
CELLSTYLE
  1
TABLEFORMAT_BEGIN
 90
        5
170
     1
 91
        0
 92
    32768
 62
   257
 93
        1
300
CONTENTFORMAT
  1
CONTENTFORMAT_BEGIN
 90
        0
 91
        0
 92
      512
 93
        0
300

 40
0.0
140
1.0
 94
        5
 62
     0
340
55
144
0.25
309
CONTENTFORMAT_END
171
     0
 94
        0
309
TABLEFORMAT_END
  1
CELLSTYLE_BEGIN
 90
        1
 91
        1
300
_TITLE
309
CELLSTYLE_END
300
CELLSTYLE
  1
TABLEFORMAT_BEGIN
 90
        5
170
     1
 91
        0
 92
        0
 62
   257
 93
        1
300
CONTENTFORMAT
  1
CONTENTFORMAT_BEGIN
 90
        0
 91
        0
 92
      512
 93
        0
300

 40
0.0
140
1.0
 94
        5
 62
     0
340
55
144
0.18
309
CONTENTFORMAT_END
171
     0
 94
        0
309
TABLEFORMAT_END
  1
CELLSTYLE_BEGIN
 90
        2
 91
        1
300
_HEADER
309
CELLSTYLE_END
300
CELLSTYLE
  1
TABLEFORMAT_BEGIN
 90
        5
170
     1
 91
        0
 92
        0
 62
   257
 93
        1
300
CONTENTFORMAT
  1
CONTENTFORMAT_BEGIN
 90
        0
 91
        0
 92
      512
 93
        0
300

 40
0.0
140
1.0
 94
        2
 62
     0
340
55
144
0.18
309
CONTENTFORMAT_END
171
     0
 94
        0
309
TABLEFORMAT_END
  1
CELLSTYLE_BEGIN
 90
        3
 91
        2
300
_DATA
309
CELLSTYLE_END
  0
XRECORD
  5
EF4
102
{ACAD_REACTORS
330
D3C
102
}
330
D3C
100
AcDbXrecord
280
     1
102
ACAD_ROUNDTRIP_PRE2007_TABLESTYLE
 90
      512
 91
        0
  1

 92
      512
 93
        0
  2

 94
      512
 95
        0
  3

  0
XRECORD
  5
ECF
102
{ACAD_REACTORS
330
ECE
102
}
330
ECE
100
AcDbXrecord
280
     1
102
RTVSPropertyOp0
 70
     1
102
RTVSPropertyOp1
 70
     1
102
RTVSPropertyOp2
 70
     1
102
RTVSPropertyOp3
 70
     1
102
RTVSPropertyOp4
 70
     1
102
RTVSPropertyOp5
 70
     1
102
RTVSPropertyOp6
 70
     1
102
RTVSPropertyOp7
 70
     1
102
RTVSPropertyOp8
 70
     1
102
RTVSPropertyOp9
 70
     1
102
RTVSPropertyOp10
 70
     1
102
RTVSPropertyOp11
 70
     1
102
RTVSPropertyOp12
 70
     1
102
RTVSPropertyOp13
 70
     1
102
RTVSPropertyOp14
 70
     1
102
RTVSPropertyOp15
 70
     1
102
RTVSPropertyOp16
 70
     1
102
RTVSPropertyOp17
 70
     1
102
RTVSPropertyOp18
 70
     1
102
RTVSPropertyOp19
 70
     1
102
RTVSPropertyOp20
 70
     1
102
RTVSPropertyOp21
 70
     1
102
RTVSPropertyOp22
 70
     1
102
RTVSPropertyOp23
 70
     1
102
RTVSPropertyOp24
 70
     1
102
RTVSPropertyOp25
 70
     1
102
RTVSPropertyOp26
 70
     1
102
RTVSPropertyOp27
 70
     1
102
RTVSPropertyOp28
 70
     1
102
RTVSPropertyOp29
 70
     1
102
RTVSPropertyOp30
 70
     1
102
RTVSPropertyOp31
 70
     1
102
RTVSPropertyOp32
 70
     1
  0
XRECORD
  5
ECD
102
{ACAD_REACTORS
330
ECC
102
}
330
ECC
100
AcDbXrecord
280
     1
102
RTVSPropertyOp0
 70
     1
102
RTVSPropertyOp1
 70
     1
102
RTVSPropertyOp2
 70
     1
102
RTVSPropertyOp3
 70
     1
102
RTVSPropertyOp4
 70
     1
102
RTVSPropertyOp5
 70
     1
102
RTVSPropertyOp6
 70
     1
102
RTVSPropertyOp7
 70
     1
102
RTVSPropertyOp8
 70
     1
102
RTVSPropertyOp9
 70
     1
102
RTVSPropertyOp10
 70
     1
102
RTVSPropertyOp11
 70
     1
102
RTVSPropertyOp12
 70
     1
102
RTVSPropertyOp13
 70
     1
102
RTVSPropertyOp14
 70
     1
102
RTVSPropertyOp15
 70
     1
102
RTVSPropertyOp16
 70
     1
102
RTVSPropertyOp17
 70
     1
102
RTVSPropertyOp18
 70
     1
102
RTVSPropertyOp19
 70
     1
102
RTVSPropertyOp20
 70
     1
102
RTVSPropertyOp21
 70
     1
102
RTVSPropertyOp22
 70
     1
102
RTVSPropertyOp23
 70
     1
102
RTVSPropertyOp24
 70
     1
102
RTVSPropertyOp25
 70
     1
102
RTVSPropertyOp26
 70
     1
102
RTVSPropertyOp27
 70
     1
102
RTVSPropertyOp28
 70
     1
102
RTVSPropertyOp29
 70
     1
102
RTVSPropertyOp30
 70
     1
102
RTVSPropertyOp31
 70
     1
102
RTVSPropertyOp32
 70
     1
  0
XRECORD
  5
EDB
102
{ACAD_REACTORS
330
EDA
102
}
330
EDA
100
AcDbXrecord
280
     1
102
RTVSPropertyOp0
 70
     1
102
RTVSPropertyOp1
 70
     1
102
RTVSPropertyOp2
 70
     1
102
RTVSPropertyOp3
 70
     1
102
RTVSPropertyOp4
 70
     1
102
RTVSPropertyOp5
 70
     1
102
RTVSPropertyOp6
 70
     1
102
RTVSPropertyOp7
 70
     1
102
RTVSPropertyOp8
 70
     1
102
RTVSPropertyOp9
 70
     1
102
RTVSPropertyOp10
 70
     1
102
RTVSPropertyOp11
 70
     1
102
RTVSPropertyOp12
 70
     1
102
RTVSPropertyOp13
 70
     1
102
RTVSPropertyOp14
 70
     1
102
RTVSPropertyOp15
 70
     1
102
RTVSPropertyOp16
 70
     1
102
RTVSPropertyOp17
 70
     1
102
RTVSPropertyOp18
 70
     1
102
RTVSPropertyOp19
 70
     1
102
RTVSPropertyOp20
 70
     1
102
RTVSPropertyOp21
 70
     1
102
RTVSPropertyOp22
 70
     1
102
RTVSPropertyOp23
 70
     1
102
RTVSPropertyOp24
 70
     1
102
RTVSPropertyOp25
 70
     1
102
RTVSPropertyOp26
 70
     1
102
RTVSPropertyOp27
 70
     1
102
RTVSPropertyOp28
 70
     1
102
RTVSPropertyOp29
 70
     1
102
RTVSPropertyOp30
 70
     1
102
RTVSPropertyOp31
 70
     1
102
RTVSPropertyOp32
 70
     1
  0
XRECORD
  5
EE3
102
{ACAD_REACTORS
330
EE2
102
}
330
EE2
100
AcDbXrecord
280
     1
102
RTVSPropertyOp0
 70
     1
102
RTVSPropertyOp1
 70
     1
102
RTVSPropertyOp2
 70
     1
102
RTVSPropertyOp3
 70
     1
102
RTVSPropertyOp4
 70
     1
102
RTVSPropertyOp5
 70
     1
102
RTVSPropertyOp6
 70
     1
102
RTVSPropertyOp7
 70
     1
102
RTVSPropertyOp8
 70
     1
102
RTVSPropertyOp9
 70
     1
102
RTVSPropertyOp10
 70
     1
102
RTVSPropertyOp11
 70
     1
102
RTVSPropertyOp12
 70
     1
102
RTVSPropertyOp13
 70
     1
102
RTVSPropertyOp14
 70
     1
102
RTVSPropertyOp15
 70
     1
102
RTVSPropertyOp16
 70
     1
102
RTVSPropertyOp17
 70
     1
102
RTVSPropertyOp18
 70
     1
102
RTVSPropertyOp19
 70
     1
102
RTVSPropertyOp20
 70
     1
102
RTVSPropertyOp21
 70
     1
102
RTVSPropertyOp22
 70
     1
102
RTVSPropertyOp23
 70
     1
102
RTVSPropertyOp24
 70
     1
102
RTVSPropertyOp25
 70
     1
102
RTVSPropertyOp26
 70
     1
102
RTVSPropertyOp27
 70
     1
102
RTVSPropertyOp28
 70
     1
102
RTVSPropertyOp29
 70
     1
102
RTVSPropertyOp30
 70
     1
102
RTVSPropertyOp31
 70
     1
102
RTVSPropertyOp32
 70
     1
  0
XRECORD
  5
ED5
102
{ACAD_REACTORS
330
ED4
102
}
330
ED4
100
AcDbXrecord
280
     1
102
RTVSPropertyOp0
 70
     1
102
RTVSPropertyOp1
 70
     1
102
RTVSPropertyOp2
 70
     1
102
RTVSPropertyOp3
 70
     1
102
RTVSPropertyOp4
 70
     1
102
RTVSPropertyOp5
 70
     1
102
RTVSPropertyOp6
 70
     1
102
RTVSPropertyOp7
 70
     1
102
RTVSPropertyOp8
 70
     1
102
RTVSPropertyOp9
 70
     1
102
RTVSPropertyOp10
 70
     1
102
RTVSPropertyOp11
 70
     1
102
RTVSPropertyOp12
 70
     1
102
RTVSPropertyOp13
 70
     1
102
RTVSPropertyOp14
 70
     1
102
RTVSPropertyOp15
 70
     1
102
RTVSPropertyOp16
 70
     1
102
RTVSPropertyOp17
 70
     1
102
RTVSPropertyOp18
 70
     1
102
RTVSPropertyOp19
 70
     1
102
RTVSPropertyOp20
 70
     1
102
RTVSPropertyOp21
 70
     1
102
RTVSPropertyOp22
 70
     1
102
RTVSPropertyOp23
 70
     1
102
RTVSPropertyOp24
 70
     1
102
RTVSPropertyOp25
 70
     1
102
RTVSPropertyOp26
 70
     1
102
RTVSPropertyOp27
 70
     1
102
RTVSPropertyOp28
 70
     1
102
RTVSPropertyOp29
 70
     1
102
RTVSPropertyOp30
 70
     1
102
RTVSPropertyOp31
 70
     1
102
RTVSPropertyOp32
 70
     1
  0
XRECORD
  5
ED9
102
{ACAD_REACTORS
330
ED8
102
}
330
ED8
100
AcDbXrecord
280
     1
102
RTVSPropertyOp0
 70
     1
102
RTVSPropertyOp1
 70
     1
102
RTVSPropertyOp2
 70
     1
102
RTVSPropertyOp3
 70
     1
102
RTVSPropertyOp4
 70
     1
102
RTVSPropertyOp5
 70
     1
102
RTVSPropertyOp6
 70
     1
102
RTVSPropertyOp7
 70
     1
102
RTVSPropertyOp8
 70
     1
102
RTVSPropertyOp9
 70
     1
102
RTVSPropertyOp10
 70
     1
102
RTVSPropertyOp11
 70
     1
102
RTVSPropertyOp12
 70
     1
102
RTVSPropertyOp13
 70
     1
102
RTVSPropertyOp14
 70
     1
102
RTVSPropertyOp15
 70
     1
102
RTVSPropertyOp16
 70
     1
102
RTVSPropertyOp17
 70
     1
102
RTVSPropertyOp18
 70
     1
102
RTVSPropertyOp19
 70
     1
102
RTVSPropertyOp20
 70
     1
102
RTVSPropertyOp21
 70
     1
102
RTVSPropertyOp22
 70
     1
102
RTVSPropertyOp23
 70
     1
102
RTVSPropertyOp24
 70
     1
102
RTVSPropertyOp25
 70
     1
102
RTVSPropertyOp26
 70
     1
102
RTVSPropertyOp27
 70
     1
102
RTVSPropertyOp28
 70
     1
102
RTVSPropertyOp29
 70
     1
102
RTVSPropertyOp30
 70
     1
102
RTVSPropertyOp31
 70
     1
102
RTVSPropertyOp32
 70
     1
  0
XRECORD
  5
EF3
102
{ACAD_REACTORS
330
EF2
102
}
330
EF2
100
AcDbXrecord
280
     1
102
RTVSPropertyOp0
 70
     0
102
RTVSPropertyOp1
 70
     0
102
RTVSPropertyOp2
 70
     0
102
RTVSPropertyOp3
 70
     0
102
RTVSPropertyOp4
 70
     0
102
RTVSPropertyOp5
 70
     0
102
RTVSPropertyOp6
 70
     0
102
RTVSPropertyOp7
 70
     0
102
RTVSPropertyOp8
 70
     0
102
RTVSPropertyOp9
 70
     0
102
RTVSPropertyOp10
 70
     0
102
RTVSPropertyOp11
 70
     0
102
RTVSPropertyOp12
 70
     0
102
RTVSPropertyOp13
 70
     0
102
RTVSPropertyOp14
 70
     2
102
RTVSPropertyOp15
 70
     0
102
RTVSPropertyOp16
 70
     0
102
RTVSPropertyOp17
 70
     0
102
RTVSPropertyOp18
 70
     0
102
RTVSPropertyOp19
 70
     0
102
RTVSPropertyOp20
 70
     0
102
RTVSPropertyOp21
 70
     0
102
RTVSPropertyOp22
 70
     0
102
RTVSPropertyOp23
 70
     0
102
RTVSPropertyOp24
 70
     0
102
RTVSPropertyOp25
 70
     0
102
RTVSPropertyOp26
 70
     0
102
RTVSPropertyOp27
 70
     0
102
RTVSPropertyOp28
 70
     0
102
RTVSPropertyOp29
 70
     0
102
RTVSPropertyOp30
 70
     0
102
RTVSPropertyOp31
 70
     0
102
RTVSPropertyOp32
 70
     0
  0
XRECORD
  5
EE1
102
{ACAD_REACTORS
330
EE0
102
}
330
EE0
100
AcDbXrecord
280
     1
102
RTVSPropertyOp0
 70
     1
102
RTVSPropertyOp1
 70
     1
102
RTVSPropertyOp2
 70
     1
102
RTVSPropertyOp3
 70
     1
102
RTVSPropertyOp4
 70
     1
102
RTVSPropertyOp5
 70
     1
102
RTVSPropertyOp6
 70
     1
102
RTVSPropertyOp7
 70
     1
102
RTVSPropertyOp8
 70
     1
102
RTVSPropertyOp9
 70
     1
102
RTVSPropertyOp10
 70
     1
102
RTVSPropertyOp11
 70
     1
102
RTVSPropertyOp12
 70
     1
102
RTVSPropertyOp13
 70
     1
102
RTVSPropertyOp14
 70
     1
102
RTVSPropertyOp15
 70
     1
102
RTVSPropertyOp16
 70
     1
102
RTVSPropertyOp17
 70
     1
102
RTVSPropertyOp18
 70
     1
102
RTVSPropertyOp19
 70
     1
102
RTVSPropertyOp20
 70
     1
102
RTVSPropertyOp21
 70
     1
102
RTVSPropertyOp22
 70
     1
102
RTVSPropertyOp23
 70
     1
102
RTVSPropertyOp24
 70
     1
102
RTVSPropertyOp25
 70
     1
102
RTVSPropertyOp26
 70
     1
102
RTVSPropertyOp27
 70
     1
102
RTVSPropertyOp28
 70
     1
102
RTVSPropertyOp29
 70
     1
102
RTVSPropertyOp30
 70
     1
102
RTVSPropertyOp31
 70
     1
102
RTVSPropertyOp32
 70
     1
  0
XRECORD
  5
EC5
102
{ACAD_REACTORS
330
EC4
102
}
330
EC4
100
AcDbXrecord
280
     1
102
RTVSPropertyOp0
 70
     1
102
RTVSPropertyOp1
 70
     1
102
RTVSPropertyOp2
 70
     1
102
RTVSPropertyOp3
 70
     1
102
RTVSPropertyOp4
 70
     1
102
RTVSPropertyOp5
 70
     1
102
RTVSPropertyOp6
 70
     1
102
RTVSPropertyOp7
 70
     1
102
RTVSPropertyOp8
 70
     1
102
RTVSPropertyOp9
 70
     1
102
RTVSPropertyOp10
 70
     1
102
RTVSPropertyOp11
 70
     1
102
RTVSPropertyOp12
 70
     1
102
RTVSPropertyOp13
 70
     1
102
RTVSPropertyOp14
 70
     1
102
RTVSPropertyOp15
 70
     1
102
RTVSPropertyOp16
 70
     1
102
RTVSPropertyOp17
 70
     1
102
RTVSPropertyOp18
 70
     1
102
RTVSPropertyOp19
 70
     1
102
RTVSPropertyOp20
 70
     1
102
RTVSPropertyOp21
 70
     1
102
RTVSPropertyOp22
 70
     1
102
RTVSPropertyOp23
 70
     1
102
RTVSPropertyOp24
 70
     1
102
RTVSPropertyOp25
 70
     1
102
RTVSPropertyOp26
 70
     1
102
RTVSPropertyOp27
 70
     1
102
RTVSPropertyOp28
 70
     1
102
RTVSPropertyOp29
 70
     1
102
RTVSPropertyOp30
 70
     1
102
RTVSPropertyOp31
 70
     1
102
RTVSPropertyOp32
 70
     1
  0
XRECORD
  5
EC7
102
{ACAD_REACTORS
330
EC6
102
}
330
EC6
100
AcDbXrecord
280
     1
102
RTVSPropertyOp0
 70
     1
102
RTVSPropertyOp1
 70
     1
102
RTVSPropertyOp2
 70
     1
102
RTVSPropertyOp3
 70
     1
102
RTVSPropertyOp4
 70
     1
102
RTVSPropertyOp5
 70
     1
102
RTVSPropertyOp6
 70
     1
102
RTVSPropertyOp7
 70
     1
102
RTVSPropertyOp8
 70
     1
102
RTVSPropertyOp9
 70
     1
102
RTVSPropertyOp10
 70
     1
102
RTVSPropertyOp11
 70
     1
102
RTVSPropertyOp12
 70
     1
102
RTVSPropertyOp13
 70
     1
102
RTVSPropertyOp14
 70
     1
102
RTVSPropertyOp15
 70
     1
102
RTVSPropertyOp16
 70
     1
102
RTVSPropertyOp17
 70
     1
102
RTVSPropertyOp18
 70
     1
102
RTVSPropertyOp19
 70
     1
102
RTVSPropertyOp20
 70
     1
102
RTVSPropertyOp21
 70
     1
102
RTVSPropertyOp22
 70
     1
102
RTVSPropertyOp23
 70
     1
102
RTVSPropertyOp24
 70
     1
102
RTVSPropertyOp25
 70
     1
102
RTVSPropertyOp26
 70
     1
102
RTVSPropertyOp27
 70
     1
102
RTVSPropertyOp28
 70
     1
102
RTVSPropertyOp29
 70
     1
102
RTVSPropertyOp30
 70
     1
102
RTVSPropertyOp31
 70
     1
102
RTVSPropertyOp32
 70
     1
  0
XRECORD
  5
EC9
102
{ACAD_REACTORS
330
EC8
102
}
330
EC8
100
AcDbXrecord
280
     1
102
RTVSPropertyOp0
 70
     1
102
RTVSPropertyOp1
 70
     1
102
RTVSPropertyOp2
 70
     1
102
RTVSPropertyOp3
 70
     1
102
RTVSPropertyOp4
 70
     1
102
RTVSPropertyOp5
 70
     1
102
RTVSPropertyOp6
 70
     1
102
RTVSPropertyOp7
 70
     1
102
RTVSPropertyOp8
 70
     1
102
RTVSPropertyOp9
 70
     1
102
RTVSPropertyOp10
 70
     1
102
RTVSPropertyOp11
 70
     1
102
RTVSPropertyOp12
 70
     1
102
RTVSPropertyOp13
 70
     1
102
RTVSPropertyOp14
 70
     1
102
RTVSPropertyOp15
 70
     1
102
RTVSPropertyOp16
 70
     1
102
RTVSPropertyOp17
 70
     1
102
RTVSPropertyOp18
 70
     1
102
RTVSPropertyOp19
 70
     1
102
RTVSPropertyOp20
 70
     1
102
RTVSPropertyOp21
 70
     1
102
RTVSPropertyOp22
 70
     1
102
RTVSPropertyOp23
 70
     1
102
RTVSPropertyOp24
 70
     1
102
RTVSPropertyOp25
 70
     1
102
RTVSPropertyOp26
 70
     1
102
RTVSPropertyOp27
 70
     1
102
RTVSPropertyOp28
 70
     1
102
RTVSPropertyOp29
 70
     1
102
RTVSPropertyOp30
 70
     1
102
RTVSPropertyOp31
 70
     1
102
RTVSPropertyOp32
 70
     1
  0
XRECORD
  5
ECB
102
{ACAD_REACTORS
330
ECA
102
}
330
ECA
100
AcDbXrecord
280
     1
102
RTVSPropertyOp0
 70
     1
102
RTVSPropertyOp1
 70
     1
102
RTVSPropertyOp2
 70
     1
102
RTVSPropertyOp3
 70
     1
102
RTVSPropertyOp4
 70
     1
102
RTVSPropertyOp5
 70
     1
102
RTVSPropertyOp6
 70
     1
102
RTVSPropertyOp7
 70
     1
102
RTVSPropertyOp8
 70
     1
102
RTVSPropertyOp9
 70
     1
102
RTVSPropertyOp10
 70
     1
102
RTVSPropertyOp11
 70
     1
102
RTVSPropertyOp12
 70
     1
102
RTVSPropertyOp13
 70
     1
102
RTVSPropertyOp14
 70
     1
102
RTVSPropertyOp15
 70
     1
102
RTVSPropertyOp16
 70
     1
102
RTVSPropertyOp17
 70
     1
102
RTVSPropertyOp18
 70
     1
102
RTVSPropertyOp19
 70
     1
102
RTVSPropertyOp20
 70
     1
102
RTVSPropertyOp21
 70
     1
102
RTVSPropertyOp22
 70
     1
102
RTVSPropertyOp23
 70
     1
102
RTVSPropertyOp24
 70
     1
102
RTVSPropertyOp25
 70
     1
102
RTVSPropertyOp26
 70
     1
102
RTVSPropertyOp27
 70
     1
102
RTVSPropertyOp28
 70
     1
102
RTVSPropertyOp29
 70
     1
102
RTVSPropertyOp30
 70
     1
102
RTVSPropertyOp31
 70
     1
102
RTVSPropertyOp32
 70
     1
  0
XRECORD
  5
ED3
102
{ACAD_REACTORS
330
ED2
102
}
330
ED2
100
AcDbXrecord
280
     1
102
RTVSPropertyOp0
 70
     1
102
RTVSPropertyOp1
 70
     1
102
RTVSPropertyOp2
 70
     1
102
RTVSPropertyOp3
 70
     1
102
RTVSPropertyOp4
 70
     1
102
RTVSPropertyOp5
 70
     1
102
RTVSPropertyOp6
 70
     1
102
RTVSPropertyOp7
 70
     1
102
RTVSPropertyOp8
 70
     1
102
RTVSPropertyOp9
 70
     1
102
RTVSPropertyOp10
 70
     1
102
RTVSPropertyOp11
 70
     1
102
RTVSPropertyOp12
 70
     1
102
RTVSPropertyOp13
 70
     1
102
RTVSPropertyOp14
 70
     1
102
RTVSPropertyOp15
 70
     1
102
RTVSPropertyOp16
 70
     1
102
RTVSPropertyOp17
 70
     1
102
RTVSPropertyOp18
 70
     1
102
RTVSPropertyOp19
 70
     1
102
RTVSPropertyOp20
 70
     1
102
RTVSPropertyOp21
 70
     1
102
RTVSPropertyOp22
 70
     1
102
RTVSPropertyOp23
 70
     1
102
RTVSPropertyOp24
 70
     1
102
RTVSPropertyOp25
 70
     1
102
RTVSPropertyOp26
 70
     1
102
RTVSPropertyOp27
 70
     1
102
RTVSPropertyOp28
 70
     1
102
RTVSPropertyOp29
 70
     1
102
RTVSPropertyOp30
 70
     1
102
RTVSPropertyOp31
 70
     1
102
RTVSPropertyOp32
 70
     1
  0
XRECORD
  5
EEF
102
{ACAD_REACTORS
330
EEE
102
}
330
EEE
100
AcDbXrecord
280
     1
102
RTVSPropertyOp0
 70
     0
102
RTVSPropertyOp1
 70
     0
102
RTVSPropertyOp2
 70
     0
102
RTVSPropertyOp3
 70
     0
102
RTVSPropertyOp4
 70
     0
102
RTVSPropertyOp5
 70
     0
102
RTVSPropertyOp6
 70
     0
102
RTVSPropertyOp7
 70
     0
102
RTVSPropertyOp8
 70
     0
102
RTVSPropertyOp9
 70
     0
102
RTVSPropertyOp10
 70
     0
102
RTVSPropertyOp11
 70
     0
102
RTVSPropertyOp12
 70
     0
102
RTVSPropertyOp13
 70
     0
102
RTVSPropertyOp14
 70
     2
102
RTVSPropertyOp15
 70
     0
102
RTVSPropertyOp16
 70
     0
102
RTVSPropertyOp17
 70
     0
102
RTVSPropertyOp18
 70
     0
102
RTVSPropertyOp19
 70
     0
102
RTVSPropertyOp20
 70
     0
102
RTVSPropertyOp21
 70
     0
102
RTVSPropertyOp22
 70
     0
102
RTVSPropertyOp23
 70
     0
102
RTVSPropertyOp24
 70
     0
102
RTVSPropertyOp25
 70
     0
102
RTVSPropertyOp26
 70
     0
102
RTVSPropertyOp27
 70
     0
102
RTVSPropertyOp28
 70
     0
102
RTVSPropertyOp29
 70
     0
102
RTVSPropertyOp30
 70
     0
102
RTVSPropertyOp31
 70
     0
102
RTVSPropertyOp32
 70
     0
  0
XRECORD
  5
EDF
102
{ACAD_REACTORS
330
EDE
102
}
330
EDE
100
AcDbXrecord
280
     1
102
RTVSPropertyOp0
 70
     1
102
RTVSPropertyOp1
 70
     1
102
RTVSPropertyOp2
 70
     1
102
RTVSPropertyOp3
 70
     1
102
RTVSPropertyOp4
 70
     1
102
RTVSPropertyOp5
 70
     1
102
RTVSPropertyOp6
 70
     1
102
RTVSPropertyOp7
 70
     1
102
RTVSPropertyOp8
 70
     1
102
RTVSPropertyOp9
 70
     1
102
RTVSPropertyOp10
 70
     1
102
RTVSPropertyOp11
 70
     1
102
RTVSPropertyOp12
 70
     1
102
RTVSPropertyOp13
 70
     1
102
RTVSPropertyOp14
 70
     1
102
RTVSPropertyOp15
 70
     1
102
RTVSPropertyOp16
 70
     1
102
RTVSPropertyOp17
 70
     1
102
RTVSPropertyOp18
 70
     1
102
RTVSPropertyOp19
 70
     1
102
RTVSPropertyOp20
 70
     1
102
RTVSPropertyOp21
 70
     1
102
RTVSPropertyOp22
 70
     1
102
RTVSPropertyOp23
 70
     1
102
RTVSPropertyOp24
 70
     1
102
RTVSPropertyOp25
 70
     1
102
RTVSPropertyOp26
 70
     1
102
RTVSPropertyOp27
 70
     1
102
RTVSPropertyOp28
 70
     1
102
RTVSPropertyOp29
 70
     1
102
RTVSPropertyOp30
 70
     1
102
RTVSPropertyOp31
 70
     1
102
RTVSPropertyOp32
 70
     1
  0
XRECORD
  5
EF1
102
{ACAD_REACTORS
330
EF0
102
}
330
EF0
100
AcDbXrecord
280
     1
102
RTVSPropertyOp0
 70
     0
102
RTVSPropertyOp1
 70
     0
102
RTVSPropertyOp2
 70
     0
102
RTVSPropertyOp3
 70
     0
102
RTVSPropertyOp4
 70
     0
102
RTVSPropertyOp5
 70
     0
102
RTVSPropertyOp6
 70
     0
102
RTVSPropertyOp7
 70
     0
102
RTVSPropertyOp8
 70
     0
102
RTVSPropertyOp9
 70
     0
102
RTVSPropertyOp10
 70
     0
102
RTVSPropertyOp11
 70
     0
102
RTVSPropertyOp12
 70
     0
102
RTVSPropertyOp13
 70
     0
102
RTVSPropertyOp14
 70
     2
102
RTVSPropertyOp15
 70
     0
102
RTVSPropertyOp16
 70
     0
102
RTVSPropertyOp17
 70
     0
102
RTVSPropertyOp18
 70
     0
102
RTVSPropertyOp19
 70
     0
102
RTVSPropertyOp20
 70
     0
102
RTVSPropertyOp21
 70
     0
102
RTVSPropertyOp22
 70
     0
102
RTVSPropertyOp23
 70
     0
102
RTVSPropertyOp24
 70
     0
102
RTVSPropertyOp25
 70
     0
102
RTVSPropertyOp26
 70
     0
102
RTVSPropertyOp27
 70
     0
102
RTVSPropertyOp28
 70
     0
102
RTVSPropertyOp29
 70
     0
102
RTVSPropertyOp30
 70
     0
102
RTVSPropertyOp31
 70
     0
102
RTVSPropertyOp32
 70
     0
  0
XRECORD
  5
ED7
102
{ACAD_REACTORS
330
ED6
102
}
330
ED6
100
AcDbXrecord
280
     1
102
RTVSPropertyOp0
 70
     1
102
RTVSPropertyOp1
 70
     1
102
RTVSPropertyOp2
 70
     1
102
RTVSPropertyOp3
 70
     1
102
RTVSPropertyOp4
 70
     1
102
RTVSPropertyOp5
 70
     1
102
RTVSPropertyOp6
 70
     1
102
RTVSPropertyOp7
 70
     1
102
RTVSPropertyOp8
 70
     1
102
RTVSPropertyOp9
 70
     1
102
RTVSPropertyOp10
 70
     1
102
RTVSPropertyOp11
 70
     1
102
RTVSPropertyOp12
 70
     1
102
RTVSPropertyOp13
 70
     1
102
RTVSPropertyOp14
 70
     1
102
RTVSPropertyOp15
 70
     1
102
RTVSPropertyOp16
 70
     1
102
RTVSPropertyOp17
 70
     1
102
RTVSPropertyOp18
 70
     1
102
RTVSPropertyOp19
 70
     1
102
RTVSPropertyOp20
 70
     1
102
RTVSPropertyOp21
 70
     1
102
RTVSPropertyOp22
 70
     1
102
RTVSPropertyOp23
 70
     1
102
RTVSPropertyOp24
 70
     1
102
RTVSPropertyOp25
 70
     1
102
RTVSPropertyOp26
 70
     1
102
RTVSPropertyOp27
 70
     1
102
RTVSPropertyOp28
 70
     1
102
RTVSPropertyOp29
 70
     1
102
RTVSPropertyOp30
 70
     1
102
RTVSPropertyOp31
 70
     1
102
RTVSPropertyOp32
 70
     1
  0
XRECORD
  5
EED
102
{ACAD_REACTORS
330
EEC
102
}
330
EEC
100
AcDbXrecord
280
     1
102
RTVSPropertyOp0
 70
     1
102
RTVSPropertyOp1
 70
     1
102
RTVSPropertyOp2
 70
     1
102
RTVSPropertyOp3
 70
     1
102
RTVSPropertyOp4
 70
     1
102
RTVSPropertyOp5
 70
     1
102
RTVSPropertyOp6
 70
     1
102
RTVSPropertyOp7
 70
     1
102
RTVSPropertyOp8
 70
     1
102
RTVSPropertyOp9
 70
     1
102
RTVSPropertyOp10
 70
     1
102
RTVSPropertyOp11
 70
     1
102
RTVSPropertyOp12
 70
     1
102
RTVSPropertyOp13
 70
     1
102
RTVSPropertyOp14
 70
     1
102
RTVSPropertyOp15
 70
     1
102
RTVSPropertyOp16
 70
     1
102
RTVSPropertyOp17
 70
     1
102
RTVSPropertyOp18
 70
     1
102
RTVSPropertyOp19
 70
     1
102
RTVSPropertyOp20
 70
     1
102
RTVSPropertyOp21
 70
     1
102
RTVSPropertyOp22
 70
     1
102
RTVSPropertyOp23
 70
     1
102
RTVSPropertyOp24
 70
     1
102
RTVSPropertyOp25
 70
     1
102
RTVSPropertyOp26
 70
     1
102
RTVSPropertyOp27
 70
     1
102
RTVSPropertyOp28
 70
     1
102
RTVSPropertyOp29
 70
     1
102
RTVSPropertyOp30
 70
     1
102
RTVSPropertyOp31
 70
     1
102
RTVSPropertyOp32
 70
     1
  0
XRECORD
  5
EEB
102
{ACAD_REACTORS
330
EEA
102
}
330
EEA
100
AcDbXrecord
280
     1
102
RTVSPropertyOp0
 70
     1
102
RTVSPropertyOp1
 70
     1
102
RTVSPropertyOp2
 70
     1
102
RTVSPropertyOp3
 70
     1
102
RTVSPropertyOp4
 70
     1
102
RTVSPropertyOp5
 70
     1
102
RTVSPropertyOp6
 70
     1
102
RTVSPropertyOp7
 70
     1
102
RTVSPropertyOp8
 70
     1
102
RTVSPropertyOp9
 70
     1
102
RTVSPropertyOp10
 70
     1
102
RTVSPropertyOp11
 70
     1
102
RTVSPropertyOp12
 70
     1
102
RTVSPropertyOp13
 70
     1
102
RTVSPropertyOp14
 70
     1
102
RTVSPropertyOp15
 70
     1
102
RTVSPropertyOp16
 70
     1
102
RTVSPropertyOp17
 70
     1
102
RTVSPropertyOp18
 70
     1
102
RTVSPropertyOp19
 70
     1
102
RTVSPropertyOp20
 70
     1
102
RTVSPropertyOp21
 70
     1
102
RTVSPropertyOp22
 70
     1
102
RTVSPropertyOp23
 70
     1
102
RTVSPropertyOp24
 70
     1
102
RTVSPropertyOp25
 70
     1
102
RTVSPropertyOp26
 70
     1
102
RTVSPropertyOp27
 70
     1
102
RTVSPropertyOp28
 70
     1
102
RTVSPropertyOp29
 70
     1
102
RTVSPropertyOp30
 70
     1
102
RTVSPropertyOp31
 70
     1
102
RTVSPropertyOp32
 70
     1
  0
XRECORD
  5
EE5
102
{ACAD_REACTORS
330
EE4
102
}
330
EE4
100
AcDbXrecord
280
     1
102
RTVSPropertyOp0
 70
     1
102
RTVSPropertyOp1
 70
     1
102
RTVSPropertyOp2
 70
     1
102
RTVSPropertyOp3
 70
     1
102
RTVSPropertyOp4
 70
     1
102
RTVSPropertyOp5
 70
     1
102
RTVSPropertyOp6
 70
     1
102
RTVSPropertyOp7
 70
     1
102
RTVSPropertyOp8
 70
     1
102
RTVSPropertyOp9
 70
     1
102
RTVSPropertyOp10
 70
     1
102
RTVSPropertyOp11
 70
     1
102
RTVSPropertyOp12
 70
     1
102
RTVSPropertyOp13
 70
     1
102
RTVSPropertyOp14
 70
     1
102
RTVSPropertyOp15
 70
     1
102
RTVSPropertyOp16
 70
     1
102
RTVSPropertyOp17
 70
     1
102
RTVSPropertyOp18
 70
     1
102
RTVSPropertyOp19
 70
     1
102
RTVSPropertyOp20
 70
     1
102
RTVSPropertyOp21
 70
     1
102
RTVSPropertyOp22
 70
     1
102
RTVSPropertyOp23
 70
     1
102
RTVSPropertyOp24
 70
     1
102
RTVSPropertyOp25
 70
     1
102
RTVSPropertyOp26
 70
     1
102
RTVSPropertyOp27
 70
     1
102
RTVSPropertyOp28
 70
     1
102
RTVSPropertyOp29
 70
     1
102
RTVSPropertyOp30
 70
     1
102
RTVSPropertyOp31
 70
     1
102
RTVSPropertyOp32
 70
     1
  0
XRECORD
  5
EE7
102
{ACAD_REACTORS
330
EE6
102
}
330
EE6
100
AcDbXrecord
280
     1
102
RTVSPropertyOp0
 70
     1
102
RTVSPropertyOp1
 70
     1
102
RTVSPropertyOp2
 70
     1
102
RTVSPropertyOp3
 70
     1
102
RTVSPropertyOp4
 70
     1
102
RTVSPropertyOp5
 70
     1
102
RTVSPropertyOp6
 70
     1
102
RTVSPropertyOp7
 70
     1
102
RTVSPropertyOp8
 70
     1
102
RTVSPropertyOp9
 70
     1
102
RTVSPropertyOp10
 70
     1
102
RTVSPropertyOp11
 70
     1
102
RTVSPropertyOp12
 70
     1
102
RTVSPropertyOp13
 70
     1
102
RTVSPropertyOp14
 70
     1
102
RTVSPropertyOp15
 70
     1
102
RTVSPropertyOp16
 70
     1
102
RTVSPropertyOp17
 70
     1
102
RTVSPropertyOp18
 70
     1
102
RTVSPropertyOp19
 70
     1
102
RTVSPropertyOp20
 70
     1
102
RTVSPropertyOp21
 70
     1
102
RTVSPropertyOp22
 70
     1
102
RTVSPropertyOp23
 70
     1
102
RTVSPropertyOp24
 70
     1
102
RTVSPropertyOp25
 70
     1
102
RTVSPropertyOp26
 70
     1
102
RTVSPropertyOp27
 70
     1
102
RTVSPropertyOp28
 70
     1
102
RTVSPropertyOp29
 70
     1
102
RTVSPropertyOp30
 70
     1
102
RTVSPropertyOp31
 70
     1
102
RTVSPropertyOp32
 70
     1
  0
XRECORD
  5
EDD
102
{ACAD_REACTORS
330
EDC
102
}
330
EDC
100
AcDbXrecord
280
     1
102
RTVSPropertyOp0
 70
     1
102
RTVSPropertyOp1
 70
     1
102
RTVSPropertyOp2
 70
     1
102
RTVSPropertyOp3
 70
     1
102
RTVSPropertyOp4
 70
     1
102
RTVSPropertyOp5
 70
     1
102
RTVSPropertyOp6
 70
     1
102
RTVSPropertyOp7
 70
     1
102
RTVSPropertyOp8
 70
     1
102
RTVSPropertyOp9
 70
     1
102
RTVSPropertyOp10
 70
     1
102
RTVSPropertyOp11
 70
     1
102
RTVSPropertyOp12
 70
     1
102
RTVSPropertyOp13
 70
     1
102
RTVSPropertyOp14
 70
     1
102
RTVSPropertyOp15
 70
     1
102
RTVSPropertyOp16
 70
     1
102
RTVSPropertyOp17
 70
     1
102
RTVSPropertyOp18
 70
     1
102
RTVSPropertyOp19
 70
     1
102
RTVSPropertyOp20
 70
     1
102
RTVSPropertyOp21
 70
     1
102
RTVSPropertyOp22
 70
     1
102
RTVSPropertyOp23
 70
     1
102
RTVSPropertyOp24
 70
     1
102
RTVSPropertyOp25
 70
     1
102
RTVSPropertyOp26
 70
     1
102
RTVSPropertyOp27
 70
     1
102
RTVSPropertyOp28
 70
     1
102
RTVSPropertyOp29
 70
     1
102
RTVSPropertyOp30
 70
     1
102
RTVSPropertyOp31
 70
     1
102
RTVSPropertyOp32
 70
     1
  0
XRECORD
  5
ED1
102
{ACAD_REACTORS
330
ED0
102
}
330
ED0
100
AcDbXrecord
280
     1
102
RTVSPropertyOp0
 70
     1
102
RTVSPropertyOp1
 70
     1
102
RTVSPropertyOp2
 70
     1
102
RTVSPropertyOp3
 70
     1
102
RTVSPropertyOp4
 70
     1
102
RTVSPropertyOp5
 70
     1
102
RTVSPropertyOp6
 70
     1
102
RTVSPropertyOp7
 70
     1
102
RTVSPropertyOp8
 70
     1
102
RTVSPropertyOp9
 70
     1
102
RTVSPropertyOp10
 70
     1
102
RTVSPropertyOp11
 70
     1
102
RTVSPropertyOp12
 70
     1
102
RTVSPropertyOp13
 70
     1
102
RTVSPropertyOp14
 70
     1
102
RTVSPropertyOp15
 70
     1
102
RTVSPropertyOp16
 70
     1
102
RTVSPropertyOp17
 70
     1
102
RTVSPropertyOp18
 70
     1
102
RTVSPropertyOp19
 70
     1
102
RTVSPropertyOp20
 70
     1
102
RTVSPropertyOp21
 70
     1
102
RTVSPropertyOp22
 70
     1
102
RTVSPropertyOp23
 70
     1
102
RTVSPropertyOp24
 70
     1
102
RTVSPropertyOp25
 70
     1
102
RTVSPropertyOp26
 70
     1
102
RTVSPropertyOp27
 70
     1
102
RTVSPropertyOp28
 70
     1
102
RTVSPropertyOp29
 70
     1
102
RTVSPropertyOp30
 70
     1
102
RTVSPropertyOp31
 70
     1
102
RTVSPropertyOp32
 70
     1
  0
XRECORD
  5
EE9
102
{ACAD_REACTORS
330
EE8
102
}
330
EE8
100
AcDbXrecord
280
     1
102
RTVSPropertyOp0
 70
     1
102
RTVSPropertyOp1
 70
     1
102
RTVSPropertyOp2
 70
     1
102
RTVSPropertyOp3
 70
     1
102
RTVSPropertyOp4
 70
     1
102
RTVSPropertyOp5
 70
     1
102
RTVSPropertyOp6
 70
     1
102
RTVSPropertyOp7
 70
     1
102
RTVSPropertyOp8
 70
     1
102
RTVSPropertyOp9
 70
     1
102
RTVSPropertyOp10
 70
     1
102
RTVSPropertyOp11
 70
     1
102
RTVSPropertyOp12
 70
     1
102
RTVSPropertyOp13
 70
     1
102
RTVSPropertyOp14
 70
     1
102
RTVSPropertyOp15
 70
     1
102
RTVSPropertyOp16
 70
     1
102
RTVSPropertyOp17
 70
     1
102
RTVSPropertyOp18
 70
     1
102
RTVSPropertyOp19
 70
     1
102
RTVSPropertyOp20
 70
     1
102
RTVSPropertyOp21
 70
     1
102
RTVSPropertyOp22
 70
     1
102
RTVSPropertyOp23
 70
     1
102
RTVSPropertyOp24
 70
     1
102
RTVSPropertyOp25
 70
     1
102
RTVSPropertyOp26
 70
     1
102
RTVSPropertyOp27
 70
     1
102
RTVSPropertyOp28
 70
     1
102
RTVSPropertyOp29
 70
     1
102
RTVSPropertyOp30
 70
     1
102
RTVSPropertyOp31
 70
     1
102
RTVSPropertyOp32
 70
     1
  0
ENDSEC
  0
EOF
